ДМБ (Роман Качанов) [2000 г., комедия, DVDRip-AVC]

Ответить на тему
 

Jeneva ®

Стаж: 5 лет 5 месяцев

Сообщений: 47

Симпатии: 70

ДМБ- -Год выпуска: 2000
Жанр: комедия
Продолжительность: 01:27:25-Режиссер: Роман Качанов
Сценарий: Роман Качанов, Иван Охлобыстин-В ролях: Станислав Дужников, Александр Белявский, Юозас Будрайтис, Виктор Павлов, Иван Охлобыстин, Сергей Габриэлян, Сергей Арцибашев, Роман Качанов, Петр Коршунков, Дмитрий Неживой-Описание: Студент Штык соблазнил профессорскую жену; рабочий парень Бомба спалил дотла родной завод; завсегдатай казино Пуля скрывается от кредиторов — всем одна дорога — на призывной пункт. Там их учат, что в человеке должно быть все прекрасно — погоны, кокарда, исподнее — иначе ты не человек, а млекопитающее.
Для настоящего мужчины нет лучше места, чем родная армия. А рано или поздно, «дембельский поезд» — «чух — чух — чух» — доставит тебя домой, и ты бесповоротно поймешь, что до армии был ничем, а теперь, по крайней мере, стал всем.-Качество: DVDRip-AVC
Формат: MKV
Видео кодек: AVC
Аудио кодек: AC3
Видео: h264; 704х448 (1.57); 25,000 fps; ~1816 kbps
Аудио: AC3; 48 kHz, 448 Kbps; 6 ch

MediaInfo

Общее
Уникальный идентификатор : 237865036471856801527954095901032592248 (0xB2F323BFDDAAC72599BFF34A18303378)
Полное имя : ДМБ (2000) DVDRip-AVC.mkv
Формат : Matroska
Размер файла : 1,41 Гбайт
Продолжительность : 1 ч. 27 м.
Общий поток : 2310 Кбит/сек
Дата кодирования : UTC 2011-01-15 08:14:21
Программа кодирования : mkvmerge v4.4.0 ('Die Wiederkehr') сборка от Dec 25 2010 23:32:50
Библиотека кодирования : libebml v1.0.0 + libmatroska v1.0.0
Видео
Идентификатор : 1
Формат : AVC
Формат/Информация : Advanced Video Codec
Профиль формата : [email protected]
Параметр CABAC формата : Да
Параметр ReFrames формата : 8 кадры
Параметры GOP формата : M=3, N=11
Режим смешивания : Header stripping
Идентификатор кодека : V_MPEG4/ISO/AVC
Продолжительность : 1 ч. 27 м.
Битрейт : 1816 Кбит/сек
Ширина : 704 пикс.
Высота : 448 пикс.
Соотношение сторон : 1,571
Частота кадров : 25,000 кадр/сек
Цветовое пространство : YUV
Подвыборка цветности : 4:2:0
Битовая глубина : 8 бит
Тип развёртки : Прогрессивная
Бит/(Пиксели*Кадры) : 0.230
Размер потока : 1,11 Гбайт (79%)
Библиотека кодирования : x264 core 112 r1834 a51816a
Настройки программы : cabac=1 / ref=8 / deblock=1:-1:-1 / analyse=0x3:0x133 / me=umh / subme=7 / psy=1 / psy_rd=1.00:0.00 / mixed_ref=1 / me_range=16 / chroma_me=1 / trellis=2 / 8x8dct=1 / cqm=0 / deadzone=21,11 / fast_pskip=1 / chroma_qp_offset=-2 / threads=3 / sliced_threads=0 / nr=0 / decimate=1 / interlaced=0 / constrained_intra=0 / bframes=6 / b_pyramid=2 / b_adapt=2 / b_bias=0 / direct=1 / weightb=1 / open_gop=0 / weightp=2 / keyint=250 / keyint_min=25 / scenecut=40 / intra_refresh=0 / rc=crf / mbtree=0 / crf=18.0 / qcomp=0.60 / qpmin=0 / qpmax=51 / qpstep=4 / ip_ratio=1.40 / pb_ratio=1.30 / aq=1:1.00
Аудио
Идентификатор : 2
Формат : AC-3
Формат/Информация : Audio Coding 3
Расширение режима : CM (complete main)
Режим смешивания : Header stripping
Идентификатор кодека : A_AC3
Продолжительность : 1 ч. 27 м.
Вид битрейта : Постоянный
Битрейт : 448 Кбит/сек
Канал(ы) : 6 канала(ов)
Расположение каналов : Front: L C R, Side: L R, LFE
Частота : 48,0 КГц
Битовая глубина : 16 бит
Метод сжатия : С потерями
Задержка видео : 1 мс.
Размер потока : 280 Мбайт (19%)

Знаете ли вы, что...

В фильме звучит песня «Русский ренессанс» московской рок-группы середины-конца 1980-х годов «Тупые». Автор текстов — Дмитрий Голубев.-При первом издании фильма на DVD в фильмографию режиссера Романа Качанова ошибочно включили фильмы созданные его отцом, известным мультипликатором Романом Качановым.-Герой галлюцинаций одного из героев фильма — «Карлсон, который живет на крыше», присутствовавший в сценарии фильма, впоследствии был заменен на «Чебурашку, который ищет друзей». Эта смена произошла в знак уважения к отцу режиссёра фильма, снявшего серию мультфильмов о Чебурашке.-В начале фильма, в сцене разговора военкома с послушниками храма бога Говинды, которые пытаются получить освобождение от службы по религиозным убеждениям, на стене, за спиной военкома висит репродукция картины «Апофеоз войны» известного русского художника-баталиста Василия Верещагина.

Скриншоты

x264 log

avs [info]: 704x448p 1:1 @ 25/1 fps (cfr)
x264 [info]: using SAR=1/1
x264 [info]: using cpu capabilities: MMX2 SSE2Fast SSSE3 Cache64
x264 [info]: profile High, level 3.1
x264 [info]: frame I:1093 Avg QP:17.15 size: 55472
x264 [info]: frame P:38137 Avg QP:18.70 size: 18811
x264 [info]: frame B:91901 Avg QP:21.26 size: 4948
x264 [info]: consecutive B-frames: 7.1% 6.2% 13.3% 22.5% 19.2% 28.4% 3.3%
x264 [info]: mb I I16..4: 3.1% 79.3% 17.6%
x264 [info]: mb P I16..4: 0.5% 6.2% 1.0% P16..4: 49.7% 28.2% 9.7% 0.6% 0.7% skip: 3.4%
x264 [info]: mb B I16..4: 0.0% 0.6% 0.1% B16..8: 43.1% 11.7% 3.0% direct: 5.6% skip:35.7% L0:30.2% L1:46.0% BI:23.8%
x264 [info]: 8x8 transform intra:79.7% inter:57.1%
x264 [info]: coded y,uvDC,uvAC intra: 88.3% 90.4% 74.6% inter: 29.7% 27.7% 4.6%
x264 [info]: i16 v,h,dc,p: 51% 14% 10% 25%
x264 [info]: i8 v,h,dc,ddl,ddr,vr,hd,vl,hu: 17% 16% 19% 5% 8% 8% 9% 8% 10%
x264 [info]: i4 v,h,dc,ddl,ddr,vr,hd,vl,hu: 18% 18% 19% 5% 9% 8% 9% 6% 8%
x264 [info]: i8c dc,h,v,p: 47% 20% 22% 12%
x264 [info]: Weighted P-Frames: Y:3.7% UV:1.3%
x264 [info]: ref P L0: 61.5% 13.5% 13.2% 3.2% 2.8% 2.0% 2.0% 1.4% 0.5% 0.0%
x264 [info]: ref B L0: 89.7% 6.5% 1.7% 0.8% 0.6% 0.4% 0.2%
x264 [info]: ref B L1: 96.6% 3.4%
x264 [info]: kb/s:1880.13
encoded 131131 frames, 3.77 fps, 1880.13 kb/s

Создавать темы 14-Мар-2014 16:27

[Профиль]  [ЛС] 

ribas

Стаж: 5 лет 1 месяц

Сообщений: 37

Симпатии: 1

фильм без преувеличения культовый

Создавать темы 28-Мар-2014 18:25

[Профиль]  [ЛС] 

titton

Стаж: 7 лет 1 месяц

Сообщений: 69

Симпатии: 2

ta ta ta плиз дайте скорости

Создавать темы 20-Май-2014 17:34

[Профиль]  [ЛС] 

Masud

Стаж: 3 года 6 месяцев

Сообщений: 12

Симпатии: 1

Доброй ночи! Пожалуйста дайте скорости

Создавать темы 29-Июн-2014 23:46

[Профиль]  [ЛС] 

[email protected]|0

Стаж: 5 лет 10 месяцев

Сообщений: 105

Симпатии: 4

Это вам не это!
Понятно...)))

Создавать темы 15-Янв-2015 21:09

[Профиль]  [ЛС] 

black_drow

Стаж: 6 лет 11 месяцев

Сообщений: 58

Симпатии: 8

дайте скорости пожалуйста

Создавать темы 03-Май-2015 12:05

[Профиль]  [ЛС] 
Показать сообщения:    
Ответить на тему

Текущее время: 20-Авг 09:01

Часовой пояс: UTC + 5



Вы не можете начинать темы
Вы не можете отвечать на сообщения
Вы не можете редактировать свои сообщения
Вы не можете удалять свои сообщения
Вы не можете голосовать в опросах
Вы не можете прикреплять файлы к сообщениям
Вы не можете скачивать файлы