Нереальная любовь (Арман Геворгян) [2014 г., Комедия, DVDRip] [Лицензия]

Ответить на тему
 

Suxrob89 ®

Стаж: 7 лет 1 месяц

Сообщений: 933

Симпатии: 564

-Нереальная любовь- Год выпуска: 2014
Производство: Россия, DreamTeam Media
Жанр: Комедия
Продолжительность: 01:17:01
Перевод: Оригинал [русский]-Режиссер: Арман Геворгян-В ролях: Игорь Верник, Егор Пазенко, Гоша Куценко, Егор Бероев, Волга Король, Герман Шпригов, Янина Студилина, Дмитрий Ендальцев, Олеся Пуховая, Юрий Базик, Анатолий Голуб, Сергей Журавель, Анна Щербинина, Анатолий Терпицкий, Оскар Кучера, Марина Александрова, Равшана Куркова, Фрида Геворгян, Сергей Новицкий, Катя Король-Описание: Мира и Ольга когда-то учились в одном классе, и спустя 10 лет случайно встречаются вновь. Светская львица решает наладить личную жизнь одноклассницы и помогает ей превратиться из наивной серой мышки в роковую красотку. Девушки отправляются в Сочи, где проходит бизнес — форум, в поисках единственного и неповторимого. Московские красотки без труда покоряют мужские сердца, попав в водоворот романтических приключений.- -Качество: DVDRip
Формат: AVI
Видео кодек: XviD
Аудио кодек: AC3
Видео: XviD, 1888 Кбит/с, 720x304, 24,000 кадра/сек
Аудио: AC3, 2 канала, 320 Кбит/с, 48,0 КГц

Media info

Общее
Полное имя                               : D:\Nerealnaya.Lubov.2014.DVDRip.avi
Формат                                   : AVI
Формат/Информация                        : Audio Video Interleave
Размер файла                             : 1,37 Гбайт
Продолжительность                        : 1 ч. 17 м.
Общий поток                              : 2208 Кбит/сек
Программа кодирования                    : VirtualDubMod 1.5.10.2 (build 2540/release)
Библиотека кодирования                   : VirtualDubMod build 2540/release
Видео
Идентификатор                            : 0
Формат                                   : MPEG-4 Visual
Профиль формата                          : Advanced [email protected]
Параметр BVOP формата                    : 2
Параметр QPel формата                    : Нет
Параметр GMC формата                     : Без точки перехода
Параметр матрицы формата                 : Выборочная
Идентификатор кодека                     : XVID
Идентификатор кодека/Подсказка           : XviD
Продолжительность                        : 1 ч. 17 м.
Битрейт                                  : 1888 Кбит/сек
Ширина                                   : 720 пикселей
Высота                                   : 304 пикселя
Соотношение сторон                       : 2,35:1
Частота кадров                           : 24,000 кадра/сек
Цветовое пространство                    : YUV
Субдискретизация насыщенности            : 4:2:0
Битовая глубина                          : 8 бит
Тип развёртки                            : Прогрессивная
Метод сжатия                             : С потерями
Бит/(Пиксели*Кадры)                      : 0.215
Размер потока                            : 1,22 Гбайт (89%)
Библиотека кодирования                   : XviD 1.2.1 (UTC 2008-12-04)
Аудио
Идентификатор                            : 1
Формат                                   : AC-3
Формат/Информация                        : Audio Coding 3
Расширение режима                        : CM (complete main)
Параметр Endianness формата              : Big
Идентификатор кодека                     : 2000
Продолжительность                        : 1 ч. 17 м.
Вид битрейта                             : Постоянный
Битрейт                                  : 320 Кбит/сек
Каналы                                   : 2 канала
Расположение каналов                     : Front: L R
Частота                                  : 48,0 КГц
Битовая глубина                          : 16 бит
Метод сжатия                             : С потерями
Размер потока                            : 142 Мбайт (10%)
Выравнивание                             : Разделение по промежуткам
Продолжительность промежутка             : 42  мс. (1,00 видеокадр)
Время предзагрузки промежутка            : 500  мс.

Скриншоты





Создавать темы 15-Мар-2014 07:35

[Профиль]  [ЛС] 

drabadan

Стаж: 4 года 7 месяцев

Сообщений: 28

ххххххх тфу

Создавать темы 15-Мар-2014 09:45

[Профиль]  [ЛС] 

extrimal1994

Стаж: 4 года 7 месяцев

Сообщений: 153

Симпатии: 26

помогу с раздачей :)

Создавать темы 15-Мар-2014 10:00

[Профиль]  [ЛС] 

farrux_93

Стаж: 4 года 8 месяцев

Сообщений: 24

Добавьте эти российские фильмы прощу если вышли :Синевир.Иуда.Владение 18.Дубровский. Трудно быть богом.Спираль.Жажда.Снегурочка.В ожидании моря.Энтропия.Небесные жены луговых мари.Вечное возвращение.Частное пионерское.Цель вижу.Упакованные.Пока еще жива.Разносчик.Черная роза.Залётчики.С 8 марта мужчины.Зимний путь.Про жену,мечту и еще одну.

Создавать темы 20-Мар-2014 23:43

[Профиль]  [ЛС] 

MCCheck

Стаж: 5 лет

Сообщений: 5

спасибо за фильм!)

Создавать темы 05-Апр-2014 07:39

[Профиль]  [ЛС] 

azam

Стаж: 7 лет 3 месяца

Сообщений: 97

Симпатии: 7

795640ххххххх тфу
Ты об этом: http://mover.uz/watch/xnwj1kpj/ ?

Создавать темы 05-Апр-2014 08:37

[Профиль]  [ЛС] 

Lyuleshka

Стаж: 4 года 10 месяцев

Сообщений: 6

Дайте скорости плизз 2,5 часа качаю, еще даже 30% нет ca

Создавать темы 07-Июл-2014 22:11

[Профиль]  [ЛС] 

Irridium

Стаж: 5 лет 3 месяца

Сообщений: 20

Спасибо. Для меня фильм не очень, но жене понравился.

Создавать темы 25-Июл-2014 07:04

[Профиль]  [ЛС] 

annodaba

Стаж: 5 лет 3 месяца

Сообщений: 18

Симпатии: 1

Пособие, как стать ТП

Создавать темы 25-Июл-2014 18:18

[Профиль]  [ЛС] 
Показать сообщения:    
Ответить на тему

Текущее время: 20-Сен 15:56

Часовой пояс: UTC + 5



Вы не можете начинать темы
Вы не можете отвечать на сообщения
Вы не можете редактировать свои сообщения
Вы не можете удалять свои сообщения
Вы не можете голосовать в опросах
Вы не можете прикреплять файлы к сообщениям
Вы не можете скачивать файлы