Поцелуй Дракона / Kiss of the Dragon (Крис Наон) [2001 г., боевик, триллер, драма, криминал, HDTVRip]

Ответить на тему
 

Mrblack ®

Стаж: 6 лет 6 месяцев

Сообщений: 247

Симпатии: 52

-Поцелуй Дракона / Kiss of the Dragon-- Год выпуска: 2001--Страна: США, Франция--Жанр:Боевик, триллер, драма, криминал--Продолжительность:01:38:15--Перевод: Профессиональный (полное дублирование)--Режиссер:Крис Наон--В ролях: Джет Ли, Бриджит Фонда, Чеки Карио , Макс Райан, Рик Янг, Берт Квук, Лоуренс Эшли, Сирил Раффаэлли, Дидье Азулай, Джон Форджэм , Пол Баррет, Кэнтаро Юри Йамашита
Описание: Офицер китайской разведки приезжает из Гонконга в Париж, чтобы участвовать в опасной операции, цель которой — заманить в ловушку и взять с поличным крупного наркобарона. Но дела идут совершенно непредсказуемо.
Герой попадает в двойную ловушку и становится подозреваемым в убийстве c неопровержимыми уликами против него. Его жизнь теперь зависит от того, сумеет ли он уйти от преследования и доказать свою невиновность
.-- 
--Качество: HDTVRip
Формат: MKV
Видео кодек: H.26x
Аудио кодек: AC3
Видео: AVC, 1280x542 (2.35:1) at 23.976 fps, AVC at 3805 kbps avg, 0.229 bit/pixel
Аудио: 48 kHz, AC3 Dolby Digital, 3/2 (L,C,R,l,r) + LFE ch, 448.00 kbps - Russian--

MediaInfo

Расположение: D:\Kino\Поцелуй дракона.2001.HDTVRip.mkv
Имя файла: Поцелуй дракона.2001.HDTVRip.mkv
Формат файла: .mkv (Matroska)
Размер файла: 2.92 GB
Длительность: 1h 38mn
Навигация по главам: Есть
Bitrate (все потоки): 4 252 Kbps
Файл создан...: UTC 2013-11-25 14:58:24
...при помощи: mkvmerge v5.0.1 ('Es ist Sommer') built on Oct 23 2011 00:46:40
...с использованием: libebml v1.2.2 + libmatroska v1.3.0
Название: -=LEONARDO=-
Тип потока: Видео
Длительность: 01:38:15
Кодек: AVC
Кодек/Профиль: [email protected]
Кодек/ID: V_MPEG4/ISO/AVC
Размеры изображения: 1280 x 542 (2.35:1)
Частота кадров: 23.976 fps
Размер потока: 2.55 GiB (87%)
Битрейт: 3 805 Kbps
Библиотека кодирования: x264 core 125 r2208 d9d2288
Настройки кодирования: cabac=1 / ref=9 / deblock=1:-3:-3 / analyse=0x3:0x133 / me=umh / subme=11 / psy=1 / psy_rd=1.00:0.15 / mixed_ref=1 / me_range=32 / chroma_me=1 / trellis=2 / 8x8dct=1 / cqm=0 / deadzone=21,11 / fast_pskip=0 / chroma_qp_offset=-3 / threads=12 / lookahead_threads=2 / sliced_threads=0 / nr=0 / decimate=1 / interlaced=0 / bluray_compat=0 / constrained_intra=0 / bframes=8 / b_pyramid=2 / b_adapt=2 / b_bias=0 / direct=3 / weightb=1 / open_gop=0 / weightp=2 / keyint=250 / keyint_min=23 / scenecut=40 / intra_refresh=0 / rc=2pass / mbtree=0 / bitrate=3805 / ratetol=1.0 / qcomp=0.60 / qpmin=0 / qpmax=69 / qpstep=4 / cplxblur=20.0 / qblur=0.5 / ip_ratio=1.20 / pb_ratio=1.15 / aq=2:1.00
Тип потока: Звук #1
Длительность: 01:38:15.936
Кодек: AC-3
Кодек/ID: A_AC3
Частота дискретизации: 48.0 KHz
Каналов: 6 channels
Битрейт: 448 Kbps
Размер потока: 315 MiB (11%)
Язык: Russian
Название: Dub
Тип потока: субтитры #1
Язык: Russian

Скриншоты

понравилось? жми мне нравиться!


Последний раз редактировалось: Mrblack (2014-03-21 09:34), всего редактировалось 1 раз

Создавать темы 15-Мар-2014 10:38

[Профиль]  [ЛС] 

razor2011

Стаж: 5 лет 2 месяца

Сообщений: 227

Симпатии: 37

хорошое кино !!!

Создавать темы 15-Мар-2014 11:21

[Профиль]  [ЛС] 

tas-ix-admin

Стаж: 5 лет

Сообщений: 13

Симпатии: 1

Mrblack, Встань на раздачу

Создавать темы 19-Мар-2014 10:39

[Профиль]  [ЛС] 

farik9193

Стаж: 5 лет

Сообщений: 501

Симпатии: 47

обажаю отот филмь всем советую скачать и посмотреть

Создавать темы 20-Мар-2014 22:09

[Профиль]  [ЛС] 

maxuz

Стаж: 6 лет 9 месяцев

Сообщений: 55

Симпатии: 3

ПОМОГУ С РАЗДАЧЕЙ

Создавать темы 05-Апр-2014 00:41

[Профиль]  [ЛС] 
Показать сообщения:    
Ответить на тему

Текущее время: 18-Ноя 07:40

Часовой пояс: UTC + 5



Вы не можете начинать темы
Вы не можете отвечать на сообщения
Вы не можете редактировать свои сообщения
Вы не можете удалять свои сообщения
Вы не можете голосовать в опросах
Вы не можете прикреплять файлы к сообщениям
Вы не можете скачивать файлы