Уцелевший / Lone Survivor (Питер Берг) [2013, боевик, триллер, драма, военный, WEB DL 720][Лицензия]

Ответить на тему
 

NeymaR ®

Стаж: 4 года 1 месяц

Сообщений: 68

Симпатии: 16

Уцелевший / Lone Survivor- Год: 2013
Страна: США
Жанр: Боевик, триллер, драма, военный
Продолжительность: 02:01:47
Перевод: Дублированный [Лицензия]
Субтитры: Нет
Режиссёр: Питер Берг
В ролях: Марк Уолберг, Тейлор Китч, Эмиль Хирш, Бен Фостер, Юсуф Азами, Али Сулиман, Эрик Бана, Александр Людвиг, Рич Тинг, Дэн Билзериан-Сценарий: Питер Берг, Патрик Робинсон
Продюсер: Сара Обри, Рэндолл Эмметт, Акива Голдсман
Оператор: Тобиас Э. Шлисслер
Композитор: Explosions in the Sky, Стив Яблонски
Художник: Том Даффилд, Стив Купер, Эми Стофски
Монтаж: Колби Паркер мл.-Бюджет: $40 000 000
Сборы в США: $124 259 246
Сборы в России: $955 539-Премьера (мир): 12 ноября 2013
Премьера (РФ): 20 февраля 2014, «Люксор»
Релиз на Blu-Ray: 25 марта 2014, «Lizard Cinema Trade»
Релиз на DVD: 25 марта 2014, «Lizard Cinema Trade»-Описание: Афганистан, 2005 год. Команда американских спецназовцев получает задание обезвредить известного лидера талибов Ахмада Шаха. Попав в ловушку, солдаты принимают неравный кровопролитный бой, и все они погибают героями. Все, кроме одного. Для уцелевшего Маркуса Латтрела бой только начинается: он любой ценой должен выжить и пробраться к «своим». Когда почти всё потеряно, ему решается помочь Гулаб — мирный человек, ненавидящий войну.- -Качество: WEB DL 720
Формат: MKV
Видео кодек: AVC
Аудио кодек: AC3
Видео: 4000 kb/s, 1280x540, 24 fps
Аудио: AC3, 384 kb/s (6 ch), 48 Кгц-

Media INFO

Format                                   : Matroska
Format version                           : Version 2
File size                                : 3.72 GiB
Duration                                 : 2h 1mn
Overall bit rate                         : 4 395 Kbps
Encoded date                             : UTC 2014-03-13 19:28:21
Writing application                      : mkvmerge v5.8.0 ('No Sleep / Pillow') built on Sep  2 2012 15:37:04
Writing library                          : libebml v1.2.3 + libmatroska v1.3.0
Video
ID                                       : 1
Format                                   : AVC
Format/Info                              : Advanced Video Codec
Format profile                           : [email protected]
Format settings, CABAC                   : No
Format settings, ReFrames                : 2 frames
Codec ID                                 : V_MPEG4/ISO/AVC
Duration                                 : 2h 1mn
Bit rate                                 : 3 924 Kbps
Width                                    : 1 280 pixels
Height                                   : 540 pixels
Display aspect ratio                     : 2.40:1
Frame rate mode                          : Constant
Frame rate                               : 24.000 fps
Color space                              : YUV
Chroma subsampling                       : 4:2:0
Bit depth                                : 8 bits
Scan type                                : Progressive
Bits/(Pixel*Frame)                       : 0.237
Stream size                              : 3.32 GiB (89%)
Language                                 : English
Default                                  : Yes
Forced                                   : No
Color primaries                          : BT.709
Transfer characteristics                 : BT.709
Matrix coefficients                      : BT.709
Audio
ID                                       : 2
Format                                   : AC-3
Format/Info                              : Audio Coding 3
Mode extension                           : CM (complete main)
Format settings, Endianness              : Big
Codec ID                                 : A_AC3
Duration                                 : 2h 1mn
Bit rate mode                            : Constant
Bit rate                                 : 384 Kbps
Channel(s)                               : 6 channels
Channel positions                        : Front: L C R, Side: L R, LFE
Sampling rate                            : 48.0 KHz
Bit depth                                : 16 bits
Compression mode                         : Lossy
Stream size                              : 333 MiB (9%)
Language                                 : Russian
Default                                  : Yes
Forced                                   : No
Menu
00:00:00.000                             : en:Рлава 1
00:10:36.000                             : en:Рлава 2
00:15:38.000                             : en:Рлава 3
00:20:40.000                             : en:Рлава 4
00:25:41.000                             : en:Рлава 5
00:30:43.000                             : en:Рлава 6
00:35:44.000                             : en:Рлава 7
00:40:45.000                             : en:Рлава 8
00:45:45.000                             : en:Рлава 9
00:50:50.000                             : en:Рлава 10
00:55:57.000                             : en:Рлава 11
01:01:00.000                             : en:Рлава 12
01:06:06.000                             : en:Рлава 13
01:11:07.000                             : en:Рлава 14
01:16:10.000                             : en:Рлава 15
01:21:12.000                             : en:Рлава 16
01:26:13.000                             : en:Рлава 17
01:31:15.000                             : en:Рлава 18
01:36:15.000                             : en:Рлава 19
01:41:16.000                             : en:Рлава 20
01:46:20.000                             : en:Рлава 21
01:51:20.000                             : en:Рлава 22

Скриншоты

Создавать темы 15-Мар-2014 11:32

[Профиль]  [ЛС] 

Jnec

Стаж: 5 лет 1 месяц

Сообщений: 165

Спасибо!

Создавать темы 18-Мар-2014 00:38

[Профиль]  [ЛС] 

VAIO

Стаж: 5 лет 11 месяцев

Сообщений: 1568

Симпатии: 1399

Вот этот фильм очень понравился, советую.

Создавать темы 18-Мар-2014 16:55

[Профиль]  [ЛС] 

axeman

Стаж: 5 лет 1 месяц

Сообщений: 380

Симпатии: 50

Присоединяюсь фильм стоит посмотреть..........

Создавать темы 19-Мар-2014 12:11

[Профиль]  [ЛС] 

farrux_93

Стаж: 4 года 11 месяцев

Сообщений: 24

Админ,Залейте пожалуйста прощу эти фильмы:Час призраков.Прибежище (Haunt 2013).
Прощай,Париж.Милая Фрэнсис.Всё кроме любви.Невидимый мир.Нет.Средняя школа.
Ренуар:Последняя любовь.One Direction : Это мы.Джастин Бибер:Believe.

Создавать темы 19-Мар-2014 12:56

[Профиль]  [ЛС] 

sso

Стаж: 5 лет 6 месяцев

Сообщений: 1

СПС автору за релиз

Создавать темы 20-Мар-2014 10:15

[Профиль]  [ЛС] 
Показать сообщения:    
Ответить на тему

Текущее время: 16-Дек 12:24

Часовой пояс: UTC + 5



Вы не можете начинать темы
Вы не можете отвечать на сообщения
Вы не можете редактировать свои сообщения
Вы не можете удалять свои сообщения
Вы не можете голосовать в опросах
Вы не можете прикреплять файлы к сообщениям
Вы не можете скачивать файлы