Подвиги Школьного совета (ТВ-2) / Seitokai no Ichizon Lv.2 (Имайдзуми Кэнъити) [ONA] [10 из 10] [без хардсаба] [ JAP+SUB] [2012 г., комедия, пародия, школа, BDRip] [720p]

Ответить на тему
 

Vergil ®

Стаж: 6 лет 4 месяца

Сообщений: 689

- Год выпуска: 2012
Страна: Япония
Жанр: комедия, пародия, школа
Продолжительность: 10 эп. по 24 мин.
Выпуск: c 13.10.2012 по 15.12.2012-Перевод:
  • русские субтитры от Gerale (полные/вспомогательные)
-Режиссер: Имайдзуми Кэнъити
Студия: AIC-Описание:
В частной академии Хэкиё, то есть «Небесная лазурь», есть все, любые желания и прихоти местных учеников тут же удовлетворяются. Подобная жизнь делает ненужным само существование Школьного совета, в который по инерции еще кого-то избирают по рейтингу популярности. Вот и в этом году в Совет вошли четыре девицы-красавицы, не отягощенные талантами или организаторскими способностями, зато отлично знающие законы моды и современную молодежную культуру. Компанию им составил Кэн Сугисаки, лучший ученик школы – по совместительству фанат эрогэ и любитель гаремных концовок.
Все бы шло хорошо, но новоиспеченный президент Куримо Сакурамо, она же Аку-тян, ни с того, ни с сего решила, что Совет под ее руководством должен сделать хоть что-нибудь полезное для школы. Столь смелое начинание наткнулось на явный дефицит идей. Но не беда – ведь в любимых играх, аниме и манге про школьные дела все давно уже сказано, надо только пробовать. Теперь, вооружившись сюжетными ходами из «источников» - от «Меланхолии» до «Кэйона» - энтузиастка Куримо, хентайщик Кэн, спортсменка Минацу, тусовщица Тидзуру и игроманка Мафую развернутся во всю ширь! Держись, родная школа!
© Hollow, World Art-Информационные ссылки: AniDB || World Art || MAL-Качество: BDRip
Энкод: Winter - RG Pantheon
Формат: mkv
Видео: x264 (Hi10p), 1280x720, ~2700 Kbps, 23.976 fps
Аудио JAP: Vorbis, 48000Hz, ~256 Kbps, 2ch-

Список эпизодов

01. The Memories of Sugisaki
02. The Student Council`s New Direction
03. The Student Council`s Suspicions
04. The Student Council Seeks Employment
05. The Student Council Collects
06. Crusade
07. The Student Council Welcomes
08. Size S Hunter
09. The Student Council Chases
10. The Eternal Student Council

Скриншоты



Подробные тех. данные

Общее
Уникальный идентификатор : 234079690764446797342859818739152744238 (0xB01A1BCC01366593BD803F778C246F2E)
Полное имя : Z:\Anime\720p\Seitokai no Ichizon Lv.2 [BD] [720p]\[Winter] Seitokai no Ichizon Lv.2 01 [BDrip 1280x720 x264 Vorbis].mkv
Формат : Matroska
Версия формата : Version 2
Размер файла : 575 Мбайт
Продолжительность : 24 м.
Режим общего битрейта : Переменный
Общий поток : 3252 Кбит/сек
Дата кодирования : UTC 2013-07-21 08:04:37
Программа кодирования : mkvmerge v2.9.8 ('C'est le bon') built on Aug 13 2009 12:49:06
Библиотека кодирования : libebml v0.7.7 + libmatroska v0.8.1
Видео
Идентификатор : 1
Формат : AVC
Формат/Информация : Advanced Video Codec
Профиль формата : High [email protected]
Параметр CABAC формата : Да
Параметр ReFrames формата : 9 кадров
Идентификатор кодека : V_MPEG4/ISO/AVC
Продолжительность : 24 м.
Битрейт : 2931 Кбит/сек
Ширина : 1280 пикселей
Высота : 720 пикселей
Соотношение сторон : 16:9
Режим частоты кадров : Постоянный
Частота кадров : 23,976 кадра/сек
Цветовое пространство : YUV
Субдискретизация насыщенности : 4:2:0
Битовая глубина : 10 бит
Тип развёртки : Прогрессивная
Бит/(Пиксели*Кадры) : 0.133
Размер потока : 518 Мбайт (90%)
Библиотека кодирования : x264 core 132 r2309 3b1f1f7
Настройки программы : cabac=1 / ref=9 / deblock=1:-2:-2 / analyse=0x3:0x133 / me=umh / subme=9 / psy=1 / psy_rd=0.90:0.00 / mixed_ref=1 / me_range=24 / chroma_me=1 / trellis=2 / 8x8dct=1 / cqm=0 / deadzone=21,11 / fast_pskip=1 / chroma_qp_offset=-2 / threads=6 / lookahead_threads=1 / sliced_threads=0 / nr=0 / decimate=0 / interlaced=0 / bluray_compat=0 / constrained_intra=0 / bframes=8 / b_pyramid=2 / b_adapt=2 / b_bias=0 / direct=1 / weightb=1 / open_gop=0 / weightp=2 / keyint=250 / keyint_min=23 / scenecut=40 / intra_refresh=0 / rc=crf / mbtree=0 / crf=15.6 / qcomp=0.70 / qpmin=9 / qpmax=40 / qpstep=4 / ip_ratio=1.40 / pb_ratio=1.30 / aq=1:0.90
Default : Нет
Forced : Нет
Аудио
Идентификатор : 2
Формат : Vorbis
Параметр Floor формата : 1
Идентификатор кодека : A_VORBIS
Продолжительность : 24 м.
Вид битрейта : Переменный
Битрейт : 256 Кбит/сек
Каналы : 2 канала
Частота : 48,0 КГц
Метод сжатия : С потерями
Размер потока : 45,2 Мбайт (8%)
Библиотека кодирования : libVorbis (Schaufenugget) (20101101 (Schaufenugget))
Язык : Japanese
Default : Да
Forced : Нет


Последний раз редактировалось: Vergil (2014-03-17 11:37), всего редактировалось 1 раз

Создавать темы 15-Мар-2014 12:51

[Профиль]  [ЛС] 

Vergil ®

Стаж: 6 лет 4 месяца

Сообщений: 689

Если есть недочёты в оформлении, то исправлю в понедельник

Создавать темы 15-Мар-2014 12:54

[Профиль]  [ЛС] 

Sanau

Стаж: 5 лет 2 месяца

Сообщений: 11

Симпатии: 1

Ждём-с радачи...

Создавать темы 16-Мар-2014 15:57

[Профиль]  [ЛС] 

Sanau

Стаж: 5 лет 2 месяца

Сообщений: 11

Симпатии: 1

150 метров осталось, где ты сидер?

Создавать темы 24-Мар-2014 06:49

[Профиль]  [ЛС] 

Vergil ®

Стаж: 6 лет 4 месяца

Сообщений: 689

800920150 метров осталось, где ты сидер?
Сидер раздаёт с работы, дома у сидера интернета нет. в Четверг выключили свет в офисе. В выходные Сидеру очень лень было идти до работы, чтоб включить комп. Сидер не виноват!

Создавать темы 24-Мар-2014 10:25

[Профиль]  [ЛС] 
Показать сообщения:    
Ответить на тему

Текущее время: 13-Дек 18:13

Часовой пояс: UTC + 5



Вы не можете начинать темы
Вы не можете отвечать на сообщения
Вы не можете редактировать свои сообщения
Вы не можете удалять свои сообщения
Вы не можете голосовать в опросах
Вы не можете прикреплять файлы к сообщениям
Вы не можете скачивать файлы