ГигаРоуд - Пылающий защитник человечества (фильм) / Neppu Kairiku Bushi Road [Movie] (Сакой Масаюки) [1 из 1] [Без хардсаба] [RUS(int)] [2013 г., приключения, фэнтези, меха, HDRip] [720p] [AniDUB]

Ответить на тему
 

Профессор ®

Стаж: 4 года 2 месяца

Сообщений: 63

Симпатии: 3

ГигаРоуд - Пылающий защитник человечества (фильм)
Neppu Kairiku Bushi Road [Movie]
熱風海陸ブシロード

-Премьера: 31.12.2013-Страна: Япония-Жанр: Приключение, фэнтези, меха-Тип: ТВ-спэшл-Продолжительность: 93 мин.-Озвучка: многоголосая от AniDUB (JAM & Cuba77 & Oriko & Holly)-Студия: & -Режиссер: Сакой Масаюки-Описание: На метеоре на землю прибыли ужасные твари которых прозвали Тенями. За короткое время от человечества не осталось практически ничего. Немногие выжившие бежали на последний оплот, землю Кайрику.
С тех пор в Исэ, одной их земель Кайрику есть легенда, что где-то в "Древних землях" существует великое священное оружие ГигаРоуд, которое способно раз и навсегда избавить этот мир от всех Теней. Однако, ведомое злобой и темными чувствами это оружие вместе с Тенями способно уничтожить и всю землю с ее обитателями.
Сможет ли Амэ, принцесса уничтоженной Тенями страны найти это оружие и не погубит ли ее жажда мести весь мир?-Источник: AniDUB-Информационные ссылки: Официальный сайт | World Art | MAL-Качество: HDRip
Видео кодек: AVC
Аудио кодек: AAC
Видео: 1280x720 (8bit), 23,976 кадров в сек., 1200 кб/с
Аудио: Rus - Aac, 48 кГц, 192 кб/с, 2 канала - стерео
-

Технические данные

Общее
Формат: MPEG-4
Профиль формата: Base Media
Идентификатор кодека: isom
Размер файла: 801 Мбайт
Продолжительность: 1 ч. 33 м.
Режим общего битрейта: Переменный
Общий поток: 1194 Кбит/сек
Дата кодирования: UTC 2014-01-26 23:12:19
Дата пометки: UTC 2014-01-26 23:12:19
Программа кодирования: Yamb 2.1.0.0
Видео
Идентификатор: 1
Формат: AVC
Формат/Информация: Advanced Video Codec
Профиль формата: [email protected]
Параметр CABAC формата: Да
Параметр ReFrames формата: 6 кадров
Идентификатор кодека: avc1
Идентификатор кодека/Информация: Advanced Video Coding
Продолжительность: 1 ч. 33 м.
Битрейт: 997 Кбит/сек
Максимальный битрейт: 11,6 Мбит/сек
Ширина: 1280 пикселей
Высота: 720 пикселей
Соотношение сторон: 16:9
Режим частоты кадров: Переменный
Частота кадров: 23,976 кадра/сек
Минимальная частота кадров: 14,925 кадров/сек
Максимальная частота кадров: 24,390 кадра/сек
Цветовое пространство: YUV
Субдискретизация насыщенности: 4:2:0
Битовая глубина: 8 бит
Тип развёртки: Прогрессивная
Бит/(Пиксели*Кадры): 0.045
Размер потока: 669 Мбайт (84%)
Библиотека кодирования: x264 core 140 r2377+40 929f149 tMod [[email protected] X86]
Настройки программы: cabac=1 / ref=6 / deblock=1:1:1 / analyse=0x3:0x113 / me=hex / subme=7 / psy=1 / fade_compensate=0.00 / psy_rd=0.40:0.00 / mixed_ref=1 / me_range=16 / chroma_me=1 / trellis=1 / 8x8dct=1 / cqm=0 / deadzone=21,11 / fast_pskip=1 / chroma_qp_offset=-2 / threads=12 / lookahead_threads=2 / sliced_threads=0 / nr=0 / decimate=1 / interlaced=0 / bluray_compat=0 / constrained_intra=0 / fgo=0 / bframes=5 / b_pyramid=2 / b_adapt=1 / b_bias=0 / direct=1 / weightb=1 / open_gop=0 / weightp=2 / keyint=240 / keyint_min=1 / scenecut=40 / intra_refresh=0 / rc_lookahead=40 / rc=crf / mbtree=1 / crf=20.0000 / qcomp=0.60 / qpmin=0:0:0 / qpmax=69:69:69 / qpstep=4 / ip_ratio=1.40 / aq=1:0.60 / aq-sensitivity=10.00 / aq-factor=1.00:1.00:1.00 / aq2=0 / aq3=0
Дата кодирования: UTC 2013-12-31 13:42:15
Дата пометки: UTC 2014-01-26 23:13:53
Основные цвета: BT.709
Характеристики трансфера: BT.709
Коэффициенты матрицы: BT.709
Аудио
Идентификатор: 2
Формат: AAC
Формат/Информация: Advanced Audio Codec
Профиль формата: LC
Идентификатор кодека: 40
Продолжительность: 1 ч. 33 м.
Вид битрейта: Переменный
Битрейт: 192 Кбит/сек
Максимальный битрейт: 200 Кбит/сек
Каналы: 2 канала
Расположение каналов: Front: L R
Частота: 48,0 КГц
Метод сжатия: С потерями
Задержка видео: 83 мс.
Размер потока: 129 Мбайт (16%)
Заголовок: JAM & Cuba77 & Oriko & Holly
Язык: Russian
Дата кодирования: UTC 2014-01-26 23:13:49
Дата пометки: UTC 2014-01-26 23:13:53
-

Создавать темы 17-Мар-2014 14:05

[Профиль]  [ЛС] 

Азиз87

Стаж: 4 года 9 месяцев

Сообщений: 752

Симпатии: 143

    проверено
премьера 2013 года.

Создавать темы 17-Мар-2014 15:09

[Профиль]  [ЛС] 

Профессор ®

Стаж: 4 года 2 месяца

Сообщений: 63

Симпатии: 3

797022
    проверено
премьера 2013 года.
Из-за того, что премьера оказывается была 31 декабря, во многих источниках приписывают ему 2014 год как аниме нового года. Быть может, чтобы никто не обижался. Хотя, кто знает.

Создавать темы 17-Мар-2014 16:16

[Профиль]  [ЛС] 

Monroe

Стаж: 4 года 2 месяца

Сообщений: 220

Симпатии: 62

Аниме хороший но конец печальный ak

Создавать темы 18-Мар-2014 23:24

[Профиль]  [ЛС] 

Профессор ®

Стаж: 4 года 2 месяца

Сообщений: 63

Симпатии: 3

797992Аниме хороший но конец печальный ak
Я сам еще не успел посмотреть, но все отзывы о нем подобного рода, что как бы, конец слили и можно было сделать из него целый сезон, а не 90 минутный мувик.

Создавать темы 18-Мар-2014 23:48

[Профиль]  [ЛС] 
Показать сообщения:    
Ответить на тему

Текущее время: 18-Авг 14:00

Часовой пояс: UTC + 5



Вы не можете начинать темы
Вы не можете отвечать на сообщения
Вы не можете редактировать свои сообщения
Вы не можете удалять свои сообщения
Вы не можете голосовать в опросах
Вы не можете прикреплять файлы к сообщениям
Вы не можете скачивать файлы