Сумасшедший / Pazze di me (Фаусто Брицци) [2013, комедия, HDRip] L1

Ответить на тему
 

Каротажник ®

Стаж: 4 года 1 месяц

Сообщений: 195

Симпатии: 211

Сумасшедший / Pazze di me

Год выпуска: 2013
Страна: Италия
Жанр: комедия

Продолжительность: 01:34:51
Перевод: Любительский (одноголосый) [datynet]

Режиссёр: Фаусто Брицци
В ролях: Франческо Манделли, Паола Миначчони, Киара Франчини, Лоретта Годжи, Клаудия Дзанелла, Марина Рокко, Валерия Билелло, Люсия Поли, Маурицио Микели, Gioele

Много лет назад отец бросил свою семью вместе с маленьким сыном Андреа. Теперь Андреа в буквальном смысле мучается в окружении одних только представительниц женского пола. Даже собака и та - сучка. Все женщины семьи хоть и не специально, но портили парню жизнь. Больше всего это отражалось на его отношениях с девушками. Поэтому, когда Андреа познакомился с избранницей, с которой хотел связать свою жизнь, он представился сиротой. Но его обман раскрылся, ведь такую семейку сложно утаить...




Качество: HDRip
Формат: Avi

Видео: XviD,1672 kb/s, 720x304
Аудио: MP3, 192 kb/s (2 ch)

Media Info

Format : AVI
Format/Info : Audio Video Interleave
File size : 1.24 GiB
Duration : 1h 34mn
Overall bit rate : 1 873 Kbps
Writing library : VirtualDub build 34753/release
Video
ID : 0
Format : MPEG-4 Visual
Format profile : Advanced [email protected]
Format settings, BVOP : 2
Format settings, QPel : No
Format settings, GMC : No warppoints
Format settings, Matrix : Default (H.263)
Codec ID : XVID
Codec ID/Hint : XviD
Duration : 1h 34mn
Bit rate : 1 672 Kbps
Width : 720 pixels
Height : 304 pixels
Display aspect ratio : 2.35:1
Frame rate : 24.000 fps
Color space : YUV
Chroma subsampling : 4:2:0
Bit depth : 8 bits
Scan type : Progressive
Compression mode : Lossy
Bits/(Pixel*Frame) : 0.318
Stream size : 1.11 GiB (89%)
Writing library : XviD 73
Audio
ID : 1
Format : MPEG Audio
Format version : Version 1
Format profile : Layer 3
Codec ID : 55
Codec ID/Hint : MP3
Duration : 1h 34mn
Bit rate mode : Constant
Bit rate : 192 Kbps
Channel(s) : 2 channels
Sampling rate : 44.1 KHz
Compression mode : Lossy
Stream size : 130 MiB (10%)
Alignment : Split accross interleaves
Interleave, duration : 42 ms (1.00 video frame)
Interleave, preload duration : 500 ms

Скриншоты



Создавать темы 18-Мар-2014 04:00

[Профиль]  [ЛС] 
Показать сообщения:    
Ответить на тему

Текущее время: 22-Ноя 16:10

Часовой пояс: UTC + 5



Вы не можете начинать темы
Вы не можете отвечать на сообщения
Вы не можете редактировать свои сообщения
Вы не можете удалять свои сообщения
Вы не можете голосовать в опросах
Вы не можете прикреплять файлы к сообщениям
Вы не можете скачивать файлы