Калеуче: Зов моря / Caleuche: El llamado del mar (Хорхе Ольгин / Jorge Olguín) [2012, Чили, ужасы, фэнтези, драма, WEB-DLRip] MVO

Ответить на тему
 

Suxrob89 ®

Стаж: 7 лет

Сообщений: 933

Симпатии: 564

-Калеуче: Зов моря / Caleuche: El llamado del mar- Страна: Чили
Жанр: ужасы, фэнтези, драма
Год выпуска: 2012
Продолжительность: 01:39:54
Перевод: Профессиональный (многоголосый закадровый)
Cубтитры: нет-Режиссер: Хорхе Ольгин / Jorge Olguín-В ролях: Матиас Хара, Хорхе Яньес, Уил Эдгар, Пабло Шварц, Лус Вальдивьесо, Марсело Алонсо, Виктор Монтеро, Эдуардо Паксеко, Каталина Сааведра, Жизель Итье, Хуан Пабло Миранда-Описание: Изабель — морской исследователь латинского происхождения, работающая в Соединенных Штатах, серьёзное заболевание которой вынуждает её покинуть работу. В целях оздоровления она отправляется на остров Чилоэ, что на юге Чили, и изучая историю своих предков, узнаёт о существовании удивительной легенды про корабль-призрак под названием Калеуче, который пагубно влияет на жизнь местных обитателей.- -Качество видео: WEB-DLRip
Формат видео: AVI
Видео: Xvid 720x400 25fps 1888kbps
Аудио: Dolby AC3 48000Hz stereo 192kbps

MediaInfo

General
Complete name : E:\Films\New\Kaleyche.Zov.morya.2012.avi
Format : AVI
Format/Info : Audio Video Interleave
File size : 1.46 GiB
Duration : 1h 39mn
Overall bit rate : 2 091 Kbps
Writing application : VirtualDubMod 1.5.10.3 | www.virtualdub-fr.org || (build 2550/release)
Writing library : VirtualDubMod build 2550/release
Video
ID : 0
Format : MPEG-4 Visual
Format profile : Advanced [email protected]
Format settings, BVOP : 2
Format settings, QPel : No
Format settings, GMC : No warppoints
Format settings, Matrix : Default (MPEG)
Codec ID : XVID
Codec ID/Hint : XviD
Duration : 1h 39mn
Bit rate : 1 889 Kbps
Width : 720 pixels
Height : 400 pixels
Display aspect ratio : 16:9
Frame rate : 25.000 fps
Color space : YUV
Chroma subsampling : 4:2:0
Bit depth : 8 bits
Scan type : Progressive
Compression mode : Lossy
Bits/(Pixel*Frame) : 0.262
Stream size : 1.32 GiB (90%)
Writing library : XviD 1.2.1 (UTC 2008-12-04)
Audio
ID : 1
Format : AC-3
Format/Info : Audio Coding 3
Mode extension : CM (complete main)
Format settings, Endianness : Big
Codec ID : 2000
Duration : 1h 39mn
Bit rate mode : Constant
Bit rate : 192 Kbps
Channel(s) : 2 channels
Channel positions : Front: L R
Sampling rate : 48.0 KHz
Bit depth : 16 bits
Compression mode : Lossy
Stream size : 137 MiB (9%)
Alignment : Split accross interleaves
Interleave, duration : 40 ms (1.00 video frame)
Interleave, preload duration : 500 ms

Скриншоты

Создавать темы 18-Мар-2014 06:58

[Профиль]  [ЛС] 

pavel_79

Стаж: 5 лет 4 месяца

Сообщений: 97

Симпатии: 3

Спасибо тебе Suxrob89!!!ты всегда хорошие фильмы выкладываеш!продолжай в том же духе!

Создавать темы 19-Мар-2014 20:33

[Профиль]  [ЛС] 

Ilham

Стаж: 6 лет 6 месяцев

Сообщений: 103

Симпатии: 3

не скачивает?

Создавать темы 03-Июн-2014 05:56

[Профиль]  [ЛС] 
Показать сообщения:    
Ответить на тему

Текущее время: 20-Авг 05:26

Часовой пояс: UTC + 5



Вы не можете начинать темы
Вы не можете отвечать на сообщения
Вы не можете редактировать свои сообщения
Вы не можете удалять свои сообщения
Вы не можете голосовать в опросах
Вы не можете прикреплять файлы к сообщениям
Вы не можете скачивать файлы