Кризис / Crisis / Сезон: 1 / Серии: 1-13 (13) (Джошуа Батлер) (2014г., драма, триллер, боевик, WEB-DLRip] MVO (NewStudio)

Страницы :  1, 2  След.

Ответить на тему
 

emilsky ®

Стаж: 7 лет 2 месяца

Сообщений: 2237

Симпатии: 610

Кризис/ Crisis-
-
- Год выпуска: 2014
Страна: США | NBC
Жанр: драма, триллер, боевик
Продолжительность: ~00:44:00
Перевод: Профессиональный (многоголосый закадровый) NewStudio
Субтитры: нет-Режиссёры: Джошуа Батлер и др.
В ролях: Джиллиан Андерсон, Дермот Малруни, Лэнс Гросс, Рэйчел Тейлор, Стиви Линн Джонс, Хелстон Сейдж, Джошуа Эренберг
Описание: Чтобы поставить на колени самых могущественных людей мира заберите у них самое дорогое — детей. Учащиеся спецшколы для детей элиты (включая международных дипломатов, топ-менеджеров глобальных корпораций и даже сына президента США) отправляются в тренировочно-спортивный лагерь, но становятся заложниками в большой игре…-Качество: WEB-DLRip
Формат: AVI
Видео кодек: XviD
Аудио кодек: MP3
Видео: 720x400 (16:9), 23.976 fps, 1342kbps, 0.194 bit/pixel
Аудио 1: 48 kHz, 2 ch, 128 kbps - Russian
Аудио 2: 48 kHz, 2 ch, 128 kbps - English-Релиз:

Перевод: Дмитрий Какабадзе.
Озвучание: NewStudioGroup.-

Список серий

01. Pilot / Пилот.

Даты выхода

02. If You Are Watching This I Am Dead / 23/Mar/2014
03. What Was Done to You / 30/Mar/2014
04. We Were Supposed to Help Each Other / 06/Apr/2014

Скриншоты

MI

Общее:Формат : AVIФормат/Информация : Audio Video InterleaveРазмер файла : 498 МбайтПродолжительность : 43 м.Общий поток : 1612 Кбит/секПрограмма кодирования : VirtualDubMod 1.5.10.2 (build 2540/release)Библиотека кодирования : VirtualDubMod build 2540/release
Видео:Формат : MPEG-4 VisualПрофиль формата : Advanced [email protected]Параметр BVOP формата : 2Параметр QPel формата : НетПараметр GMC формата : Без точки переходаПараметр матрицы формата : Default (MPEG)Идентификатор кодека : XVIDИдентификатор кодека/Подсказка : XviDПродолжительность : 43 м.Битрейт : 1342 Кбит/секШирина : 720 пикселейВысота : 400 пикселейСоотношение сторон : 16:9Частота кадров : 23,976 кадра/секЦветовое пространство : YUVСубдискретизация насыщенности : 4:2:0Битовая глубина : 8 битТип развёртки : ПрогрессивнаяМетод сжатия : С потерямиБит/(Пиксели*Кадры) : 0.194Размер потока : 415 Мбайт (83%)Библиотека кодирования : XviD 64
Аудио #1:Формат : MPEG AudioВерсия формата : Version 1Профиль формата : Layer 3Режим : Joint stereoРасширение режима : MS StereoИдентификатор кодека : 55Идентификатор кодека/Подсказка : MP3Продолжительность : 43 м.Вид битрейта : ПостоянныйБитрейт : 128 Кбит/секКаналы : 2 каналаЧастота : 48,0 КГцМетод сжатия : С потерямиРазмер потока : 39,6 Мбайт (8%)Выравнивание : Соединение по промежуткамПродолжительность промежутка : 42 мс. (1,00 видеокадр)Время предзагрузки промежутка : 504 мс.
Аудио #2:Формат : MPEG AudioВерсия формата : Version 1Профиль формата : Layer 3Режим : Joint stereoРасширение режима : MS StereoИдентификатор кодека : 55Идентификатор кодека/Подсказка : MP3Продолжительность : 43 м.Вид битрейта : ПостоянныйБитрейт : 128 Кбит/секКаналы : 2 каналаЧастота : 48,0 КГцМетод сжатия : С потерямиРазмер потока : 39,6 Мбайт (8%)Выравнивание : Соединение по промежуткамПродолжительность промежутка : 42 мс. (1,00 видеокадр)Время предзагрузки промежутка : 504 мс.

Внимание! Раздача ведётся путём добавления новых серий

Внимание! Раздача ведётся путём добавления новых серий; при каждом добавлении создаётся новый торрент. Чтобы начать докачку новой серии, пользователям необходимо сделать следующее:
(1) остановить скачивание,
(2) удалить старый торрент у себя из клиента (старые серии удалять не надо),
(3) скачать новый торрент и запустить его у себя в клиенте вместо старого, при этом указать клиенту путь в старую папку куда и должно происходить скачивание новых серий.
Ваш клиент при этом должен произвести хеширование (проверку) старой папки (если не производит сам - помогите ему сделать это), и будет докачивать только те серии которых у вас ещё нет. Старые серии при этом не удаляются, а продолжают раздаваться!
Eсли вы уже удалили старые серии, то предотвратить повторную закачку старых серий можно, отжав галочку в соответствующих местах при запуске нового торрента. По возможности, желательно не удалять старые серии как можно дольше чтобы релизёр не столько продолжал раздавать старые серии, а смог сконцентрироваться на новых.


Последний раз редактировалось: emilsky (2014-07-04 10:06), всего редактировалось 15 раз(а)

Создавать темы 19-Мар-2014 06:21

[Профиль]  [ЛС] 

emilsky ®

Стаж: 7 лет 2 месяца

Сообщений: 2237

Симпатии: 610

пилот очень порадовал, рекомендую, через часик подрублю комп с оптикой для лучшей отдачи

Создавать темы 19-Мар-2014 08:08

[Профиль]  [ЛС] 

ZzZ

Стаж: 6 лет 11 месяцев

Сообщений: 34

Спасибо, а тут ещё и золото)

Создавать темы 19-Мар-2014 08:44

[Профиль]  [ЛС] 

FLV

Стаж: 5 лет 8 месяцев

Сообщений: 49

Симпатии: 3

dubl

Создавать темы 19-Мар-2014 09:39

[Профиль]  [ЛС] 

furzy

Стаж: 5 лет 8 месяцев

Сообщений: 67

Симпатии: 2

Пилот - хороший.
главное, чтоб дальше держали так же. есть моменты, которые удивляют зрителя, а это очень хороший плюс. главное, знать, когда закончить и не мутить санта-барбару... пока смотрим и надеемся что будет так же!

Создавать темы 22-Мар-2014 17:20

[Профиль]  [ЛС] 

emilsky ®

Стаж: 7 лет 2 месяца

Сообщений: 2237

Симпатии: 610

2 серия!

Создавать темы 26-Мар-2014 19:10

[Профиль]  [ЛС] 

Semen

Стаж: 6 лет 10 месяцев

Сообщений: 87

Симпатии: 7

В первой серии им сказали не собираться в группы больше 5 человек, а во второй они уже сидят все вместе, шепчутся с целью заговора. Слишком вольный сценарий получается :)

Создавать темы 26-Мар-2014 21:14

[Профиль]  [ЛС] 

emilsky ®

Стаж: 7 лет 2 месяца

Сообщений: 2237

Симпатии: 610

3 серия!

Создавать темы 02-Апр-2014 19:48

[Профиль]  [ЛС] 

emilsky ®

Стаж: 7 лет 2 месяца

Сообщений: 2237

Симпатии: 610

4 серия!

Создавать темы 09-Апр-2014 06:30

[Профиль]  [ЛС] 

emilsky ®

Стаж: 7 лет 2 месяца

Сообщений: 2237

Симпатии: 610

5 серия!

Создавать темы 17-Апр-2014 22:32

[Профиль]  [ЛС] 

emilsky ®

Стаж: 7 лет 2 месяца

Сообщений: 2237

Симпатии: 610

6 серия!

Создавать темы 24-Апр-2014 06:38

[Профиль]  [ЛС] 

emilsky ®

Стаж: 7 лет 2 месяца

Сообщений: 2237

Симпатии: 610

7 серия!

Создавать темы 03-Май-2014 15:07

[Профиль]  [ЛС] 

StreetKING

Стаж: 3 года 9 месяцев

Сообщений: 4

Super serial!!!

Создавать темы 10-Май-2014 01:02

[Профиль]  [ЛС] 

emilsky ®

Стаж: 7 лет 2 месяца

Сообщений: 2237

Симпатии: 610

8 серия!

Создавать темы 13-Май-2014 08:59

[Профиль]  [ЛС] 

StreetKING

Стаж: 3 года 9 месяцев

Сообщений: 4

а когда 9 серия?????

Создавать темы 21-Май-2014 21:13

[Профиль]  [ЛС] 
Показать сообщения:    
Ответить на тему

Текущее время: 25-Сен 03:48

Часовой пояс: UTC + 5



Вы не можете начинать темы
Вы не можете отвечать на сообщения
Вы не можете редактировать свои сообщения
Вы не можете удалять свои сообщения
Вы не можете голосовать в опросах
Вы не можете прикреплять файлы к сообщениям
Вы не можете скачивать файлы