Джиперс Криперс Дилогия / Jeepers Creepers (Виктор Сальва) [2001,2003 г., Ужасы, BDRip]

Ответить на тему
 

maxuz ®

Стаж: 6 лет 9 месяцев

Сообщений: 55

Симпатии: 3

Джиперс Криперс / Jeepers Creepers-- --Год выпуска: 2001--Страна: США, Германия--Жанр: Ужасы--Продолжительность: 1,30.39--Перевод: Профессиональный (полное дублирование)--Режиссер: Виктор Сальва--В ролях: Джина Филипс, Джастин Лонг, Джонатан Брек, Патриция Белчер, Эйлин Бреннан, Брэндон Смит--Описание: Если бы Дэрри и Триш знали, во что превратится их обычное путешествие домой на каникулы, то остались бы в колледже навсегда. Брат и сестра заметили ЕГО на безлюдной дороге рядом с жуткой, обветшалой церковью. Страшная фигура в длинном черном плаще и широкополой шляпе скидывала в подвал свертки, испачканные чем-то красным. После увиденного нужно было немедленно вдавить педаль газа взятой напрокат машины и умчаться от этого проклятого места как можно дальше. Но Дэрри и Триш допустили непоправимую, смертельную ошибку. Они решили вернуться и посмотреть: что же ОН прячет там, в подвале покосившейся церкви? Это безрассудное любопытство обернулось самым невообразимым кошмаром, который только можно себе представить…--Качество: BDRip
Формат: MKV
Видео кодек: H.26x
Аудио кодек: AC3
Видео: 1280x688; 6455 kbps; 23.976
Аудио: Russian DD 2.0 192kbps--

МИ

D:\Êèíî\ Äæèïåðñ Êðèïåðñ Äèëîãèÿ\Jeepers.Creepers.2001.720p.BluRay.x264SiNNERS.mkv
General
Unique ID : 182921229761840941514328741754963408615 (0x899D58EE4E18B4E5976C91970056B6E7)
Complete name : D:\Êèíî\ Äæèïåðñ Êðèïåðñ Äèëîãèÿ\Jeepers.Creepers.2001.720p.BluRay.x264SiNNERS.mkv
Format : Matroska
Format version : Version 1
File size : 4.21 GiB
Duration : 1h 30mn
Overall bit rate : 6 650 Kbps
Encoded date : UTC 2008-06-01 20:00:08
Writing application : mkvmerge v2.2.0 ('Turn It On Again') built on Mar 4 2008 12:58:26
Writing library : libebml v0.7.7 + libmatroska v0.8.1
Video #1
ID : 1
Format : AVC
Format/Info : Advanced Video Codec
Format profile : [email protected]
Format settings, CABAC : Yes
Format settings, ReFrames : 5 frames
Codec ID : V_MPEG4/ISO/AVC
Duration : 1h 30mn
Bit rate : 6 455 Kbps
Width : 1 280 pixels
Height : 688 pixels
Display aspect ratio : 1.85:1
Frame rate mode : Constant
Frame rate : 23.976 fps
Color space : YUV
Chroma subsampling : 4:2:0
Bit depth : 8 bits
Scan type : Progressive
Bits/(Pixel*Frame) : 0.306
Stream size : 4.01 GiB (95%)
Writing library : x264 core 59 r859 ce13bb6
Encoding settings : cabac=1 / ref=5 / deblock=1:0:0 / analyse=0x3:0x113 / me=umh / subme=7 / brdo=1 / mixed_ref=1 / me_range=16 / chroma_me=1 / trellis=1 / 8x8dct=1 / cqm=0 / deadzone=21,11 / chroma_qp_offset=0 / threads=6 / nr=0 / decimate=1 / mbaff=0 / bframes=3 / b_pyramid=1 / b_adapt=1 / b_bias=0 / direct=1 / wpredb=1 / bime=1 / keyint=250 / keyint_min=25 / scenecut=40(pre) / rc=2pass / bitrate=6455 / ratetol=1.0 / rceq='blurCplx^(1-qComp)' / qcomp=1.00 / qpmin=10 / qpmax=51 / qpstep=4 / cplxblur=20.0 / qblur=0.5 / ip_ratio=1.40 / pb_ratio=1.30 / aq=2:1.00
Language : English
Default : Yes
Forced : No
Audio #2
ID : 2
Format : AC-3
Format/Info : Audio Coding 3
Mode extension : CM (complete main)
Format settings, Endianness : Big
Codec ID : A_AC3
Duration : 1h 30mn
Bit rate mode : Constant
Bit rate : 192 Kbps
Channel(s) : 2 channels
Channel positions : Front: L R
Sampling rate : 48.0 KHz
Bit depth : 16 bits
Compression mode : Lossy
Stream size : 124 MiB (3%)
Language : Russian
Default : Yes
Forced : No

Скриншоты



--Джиперс Криперс 2 / Jeepers Creepers 2-- --Год выпуска: 2003--Страна:США--Жанр: Триллер, Ужасы--Продолжительность:01.44.04--Перевод: Профессиональный (полное дублирование)--Режиссер: Виктор Сальва / Victor Salva--В ролях: Гарикайи Мутамбирва, Эрик Неннингер, Марайа Делфино, Джонатан Брек, Том Госсом мл., Билли Аарон Браун, Лена Кардвэлл, Ники Линн Ококс, Дайан Делано, Рэй Уайз--Описание:На пустынной трассе кто-то разбросал остроконечные металлические звездочки, пробившие шину школьному автобусу, на котором с финального матча возвращалась домой баскетбольная команда. О помощи сообщить некому, и среди ребят, измученных жарой и полной неизвестностью, начались ссоры и взаимные обвинения. А в это время крылатое чудовище Криперс, дремавшее 23 года, уже пробудилось в поисках новых жертв. О его приближении тщетно пыталась предупредить друзей одна из девочек, видевшая монстра в кошмарных снах--Качество:AVC
Формат: MKV
Видео кодек: H.26x
Аудио кодек: AC3
Видео:AVC, 1280x544 (2.35:1) at 23.976 fps, AVC at 5553 kbps avg, 0.333 bit/pixel
Аудио:48 kHz, AC3 Dolby Digital, 3/2 (L,C,R,l,r) + LFE ch, 448.00 kbps - Russian
Субтитры: английские--

МИ

D:\Êèíî\ Äæèïåðñ Êðèïåðñ Äèëîãèÿ\Jeepers.Creepers.2001.720p.BluRay.x264SiNNERS.mkv
General
Unique ID : 182921229761840941514328741754963408615 (0x899D58EE4E18B4E5976C91970056B6E7)
Complete name : D:\Êèíî\ Äæèïåðñ Êðèïåðñ Äèëîãèÿ\Jeepers.Creepers.2001.720p.BluRay.x264SiNNERS.mkv
Format : Matroska
Format version : Version 1
File size : 4.21 GiB
Duration : 1h 30mn
Overall bit rate : 6 650 Kbps
Encoded date : UTC 2008-06-01 20:00:08
Writing application : mkvmerge v2.2.0 ('Turn It On Again') built on Mar 4 2008 12:58:26
Writing library : libebml v0.7.7 + libmatroska v0.8.1
Video #1
ID : 1
Format : AVC
Format/Info : Advanced Video Codec
Format profile : [email protected]
Format settings, CABAC : Yes
Format settings, ReFrames : 5 frames
Codec ID : V_MPEG4/ISO/AVC
Duration : 1h 30mn
Bit rate : 6 455 Kbps
Width : 1 280 pixels
Height : 688 pixels
Display aspect ratio : 1.85:1
Frame rate mode : Constant
Frame rate : 23.976 fps
Color space : YUV
Chroma subsampling : 4:2:0
Bit depth : 8 bits
Scan type : Progressive
Bits/(Pixel*Frame) : 0.306
Stream size : 4.01 GiB (95%)
Writing library : x264 core 59 r859 ce13bb6
Encoding settings : cabac=1 / ref=5 / deblock=1:0:0 / analyse=0x3:0x113 / me=umh / subme=7 / brdo=1 / mixed_ref=1 / me_range=16 / chroma_me=1 / trellis=1 / 8x8dct=1 / cqm=0 / deadzone=21,11 / chroma_qp_offset=0 / threads=6 / nr=0 / decimate=1 / mbaff=0 / bframes=3 / b_pyramid=1 / b_adapt=1 / b_bias=0 / direct=1 / wpredb=1 / bime=1 / keyint=250 / keyint_min=25 / scenecut=40(pre) / rc=2pass / bitrate=6455 / ratetol=1.0 / rceq='blurCplx^(1-qComp)' / qcomp=1.00 / qpmin=10 / qpmax=51 / qpstep=4 / cplxblur=20.0 / qblur=0.5 / ip_ratio=1.40 / pb_ratio=1.30 / aq=2:1.00
Language : English
Default : Yes
Forced : No
Audio #2
ID : 2
Format : AC-3
Format/Info : Audio Coding 3
Mode extension : CM (complete main)
Format settings, Endianness : Big
Codec ID : A_AC3
Duration : 1h 30mn
Bit rate mode : Constant
Bit rate : 192 Kbps
Channel(s) : 2 channels
Channel positions : Front: L R
Sampling rate : 48.0 KHz
Bit depth : 16 bits
Compression mode : Lossy
Stream size : 124 MiB (3%)
Language : Russian
Default : Yes
Forced : No

Скриншоты



--

Создавать темы 19-Мар-2014 20:44

[Профиль]  [ЛС] 

maxuz ®

Стаж: 6 лет 9 месяцев

Сообщений: 55

Симпатии: 3

ссылку дай буду залить

Создавать темы 19-Мар-2014 21:10

[Профиль]  [ЛС] 

maxuz ®

Стаж: 6 лет 9 месяцев

Сообщений: 55

Симпатии: 3

дата выход Джиперс Криперс 3 http://data-vikhoda.ru/board/filmy/dzhipers_kripers_3/4-1-0-177#

Создавать темы 19-Мар-2014 21:43

[Профиль]  [ЛС] 

xikmat

Стаж: 4 года 6 месяцев

Сообщений: 54

Симпатии: 2

skorost dayte

Создавать темы 13-Апр-2014 17:23

[Профиль]  [ЛС] 

inspirer

Стаж: 7 лет 3 месяца

Сообщений: 33

Симпатии: 9

конкретное дате нигде нету....

Создавать темы 14-Апр-2014 19:30

[Профиль]  [ЛС] 

CoDer

Стаж: 6 лет 7 месяцев

Сообщений: 14

Симпатии: 1

дайте докачать, 2% осталось...

Создавать темы 20-Май-2014 21:16

[Профиль]  [ЛС] 

Bars300

Стаж: 4 года 10 месяцев

Сообщений: 49

Симпатии: 3

3% осталось

Создавать темы 07-Фев-2015 23:25

[Профиль]  [ЛС] 

tas ix

Стаж: 5 лет 9 месяцев

Сообщений: 105

Симпатии: 24

Ностальгия! Вернитесь на раздачу

Создавать темы 12-Фев-2015 18:09

[Профиль]  [ЛС] 

Machine

Стаж: 5 лет 3 месяца

Сообщений: 209

Симпатии: 68

Никто не уходит с раздачи, я скачаю эти 97% и попробую найти в мире аналогичный релиз и докачаю эти недостающие 3%.

Создавать темы 03-Апр-2015 22:24

[Профиль]  [ЛС] 
Показать сообщения:    
Ответить на тему

Текущее время: 22-Ноя 08:51

Часовой пояс: UTC + 5



Вы не можете начинать темы
Вы не можете отвечать на сообщения
Вы не можете редактировать свои сообщения
Вы не можете удалять свои сообщения
Вы не можете голосовать в опросах
Вы не можете прикреплять файлы к сообщениям
Вы не можете скачивать файлы