Следователь Протасов 1-8 серии из 16 [2013 г., Криминальный боевик, TVRip]

Ответить на тему
 

Hasan Qurbonov ®

Стаж: 4 года

Сообщений: 10

Симпатии: 1

Следователь Протасов
Год выпуска: 2013
Премьера: 15 марта 2014
Режиссер Константин Фролов, Константин Смирнов
Страна: Россия
Жанр: Криминальный боевик, детектив
Продолжительность: 47 мин
В главных ролях:
Вячеслав Разбегаев
Анатолий Котенёв
Юлия Такшина
Игорь Денисов
Олег Радкевич
Сергей Широчин
Игорь Сеньков
Олеся Грибок
Татьяна Чердынцева
Анна Соломянская
Описание: Фильм "Следователь Протасов" главного героя Елисея Протасова отличного и бесстрашного следователя, сыграл известный актер Вячеслав Разбегаев. В узком кругу друзей Протасова называют - Леший, такое прозвище ему досталось из за крутого характера и редкостному имени. Он ведет особо важные дела в прокуратуре. Звание его полковник, и в юстиции он главный советник. Он упрям и бескомпромиссен, он наверно мог стать хорошим мужем или даже любовником, но характер всему помеха
Качество: SATRip
Формат: AVI
Видео кодек: XviD
Аудио кодек: MPEG Audio
Видео: 640х360, 25.000 fps, 513 Kbps
Аудио: 96.0 Kbps, 44.1 KHz, 2 channels

Скриншоты



Media Info

General
Complete name : D:\My documents\Кино\Сериалы\Следователь Протасов\01 Sledovatel Protasov.avi
Format : AVI
Format/Info : Audio Video Interleave
File size : 213 MiB
Duration : 47mn 57s
Overall bit rate : 621 Kbps
Writing application : Lavf52.39.0
Video
ID : 0
Format : xvid
Codec ID : xvid
Duration : 47mn 56s
Bit rate : 513 Kbps
Width : 640 pixels
Height : 360 pixels
Display aspect ratio : 16:9
Frame rate : 25.000 fps
Bits/(Pixel*Frame) : 0.089
Stream size : 176 MiB (83%)
Audio
ID : 1
Format : MPEG Audio
Format version : Version 1
Format profile : Layer 3
Mode : Joint stereo
Mode extension : MS Stereo
Codec ID : 55
Codec ID/Hint : MP3
Duration : 47mn 57s
Bit rate mode : Constant
Bit rate : 96.0 Kbps
Channel(s) : 2 channels
Sampling rate : 44.1 KHz
Compression mode : Lossy
Stream size : 32.9 MiB (15%)
Alignment : Aligned on interleaves
Interleave, duration : 26 ms (0.65 video frame)
Writing library : LAME3.98.2

Создавать темы 20-Мар-2014 16:21

[Профиль]  [ЛС] 

Hasan Qurbonov ®

Стаж: 4 года

Сообщений: 10

Симпатии: 1

Раздача будет с понеделника извирите занеудобства

Создавать темы 21-Мар-2014 07:44

[Профиль]  [ЛС] 

sanek-17-65

Стаж: 6 лет 6 месяцев

Сообщений: 5

Симпатии: 1

ещё 8 серий будут?

Создавать темы 16-Апр-2014 20:02

[Профиль]  [ЛС] 

sanek-17-65

Стаж: 6 лет 6 месяцев

Сообщений: 5

Симпатии: 1

Hasan Qurbonov, а где остальные серии?

Создавать темы 26-Апр-2014 19:26

[Профиль]  [ЛС] 
Показать сообщения:    
Ответить на тему

Текущее время: 20-Ноя 14:48

Часовой пояс: UTC + 5



Вы не можете начинать темы
Вы не можете отвечать на сообщения
Вы не можете редактировать свои сообщения
Вы не можете удалять свои сообщения
Вы не можете голосовать в опросах
Вы не можете прикреплять файлы к сообщениям
Вы не можете скачивать файлы