Прибежище / Haunt (Мак Картер) [2013 г., Ужасы, WEB-DLRip-AVC]

Ответить на тему
 

Akmal89 ®

Стаж: 5 лет 6 месяцев

Сообщений: 237

Симпатии: 99

Прибежище / Haunt
Информация о фильме:
Год выпуска: 2013
Страна: США
Жанр: Ужасы
Продолжительность: 01:25:47
Перевод: Любительский (двухголосый) [DeadSno & den904]-Режиссер: Мак Картер-В ролях: Лиана Либерато, Айони Скай, Джеки Уивер, Харрисон Джилбертсон, Даниэль Чачран, Джен Броберг, Келли Нунан, Алин Андраде, Касия Ковальчук, Себастьян Майкл Барр-Описание: Замкнутый подросток воодушевляется знакомством со своим новым соседом, и уже вместе парочка начинает исследовать дом с привидениями, который его семья накануне купила по неведению...-Рейтинг:- -Файл:
Качество: WEB-DLRip-AVC
Формат: MKV
Видео кодек: AVC
Аудио кодек: AC3
Видео: 1024x428, ~1724 kbps, 25.000 fps
Аудио : 1: AC3, 6 ch, 384 kbps, 44.1 KHz [russian]
Аудио : 2: AC3, 6 ch, 384 kbps, 44.1 KHz [english]----

Media Info

D:\Torrents Downloads\Ok\Haunt.2013.L2.WEB-DLRip-AVCas-ix.net.mkv
General
Complete name : D:\Torrents Downloads\Ok\Haunt.2013.L2.WEB-DLRip-AVCas-ix.net.mkv
Format : Matroska
File size : 1.52 GiB
Duration : 1h 25mn
Overall bit rate : 2 543 Kbps
Writing application : Lavf51.12.1
Writing library : Lavf51.12.1
Video #1
ID : 1
Format : AVC
Format/Info : Advanced Video Codec
Format profile : [email protected]
Format settings, CABAC : No
Format settings, ReFrames : 1 frame
Muxing mode : Container [email protected]
Codec ID : V_MPEG4/ISO/AVC
Duration : 1h 25mn
Bit rate : 1 724 Kbps
Width : 1 024 pixels
Height : 428 pixels
Display aspect ratio : 2.35:1
Original display aspect ratio : 2.35:1
Frame rate : 23.976 fps
Original frame rate : 24.000 fps
Resolution : 24 bits
Colorimetry : 4:2:0
Scan type : Progressive
Bits/(Pixel*Frame) : 0.164
Stream size : 1.03 GiB (68%)
Language : English
Audio #2
ID : 2
Format : AC-3
Format/Info : Audio Coding 3
Codec ID : A_AC3
Duration : 1h 25mn
Bit rate mode : Constant
Bit rate : 384 Kbps
Channel(s) : 6 channels
Channel positions : Front: L C R, Surround: L R, LFE
Sampling rate : 48.0 KHz
Resolution : 32 bits
Stream size : 236 MiB (15%)
Language : Russian
Audio #4
ID : 4
Format : AC-3
Format/Info : Audio Coding 3
Codec ID : A_AC3
Duration : 1h 25mn
Bit rate mode : Constant
Bit rate : 384 Kbps
Channel(s) : 6 channels
Channel positions : Front: L C R, Surround: L R, LFE
Sampling rate : 48.0 KHz
Resolution : 32 bits
Stream size : 236 MiB (15%)
Language : English
Text #3
ID : 3
Format : UTF-8
Codec ID : S_TEXT/UTF8
Codec ID/Info : UTF-8 Plain Text
Language : Russian

Скриншоты


Создавать темы 20-Мар-2014 17:17

[Профиль]  [ЛС] 

Топик был перенесен из форума Фильмы за 2013 в форум HD-AVC
Mixer City

Создавать темы 20-Мар-2014 17:52

 
Показать сообщения:    
Ответить на тему

Текущее время: 26-Сен 06:57

Часовой пояс: UTC + 5



Вы не можете начинать темы
Вы не можете отвечать на сообщения
Вы не можете редактировать свои сообщения
Вы не можете удалять свои сообщения
Вы не можете голосовать в опросах
Вы не можете прикреплять файлы к сообщениям
Вы не можете скачивать файлы