Как прошить PS3 [2013 г.]

Ответить на тему
 

Janpolat ®

Стаж: 3 года 11 месяцев

Сообщений: 4

ВИДЕО УРОКИ для КАК ПРОШИТЬ PS3
Автор: Janpolat
Год выпуска: 2013
Язык: русский
Видео кодек: Другой MPEG4

Видео

Video
ID : 1
Format : AVC
Format/Info : Advanced Video Codec
Format profile : [email protected]
Format settings, CABAC : No
Format settings, ReFrames : 1 frame
Format settings, GOP : M=1, N=60
Codec ID : avc1
Codec ID/Info : Advanced Video Coding
Duration : 4mn 30s
Bit rate : 312 Kbps
Maximum bit rate : 685 Kbps
Width : 640 pixels
Height : 360 pixels
Display aspect ratio : 16:9
Frame rate mode : Constant
Frame rate : 30.000 fps
Color space : YUV
Chroma subsampling : 4:2:0
Bit depth : 8 bits
Scan type : Progressive
Bits/(Pixel*Frame) : 0.045
Stream size : 10.1 MiB (81%)

Аудио

:Audio
ID : 2
Format : AAC
Format/Info : Advanced Audio Codec
Format profile : LC
Codec ID : 40
Duration : 4mn 30s
Bit rate mode : Variable
Bit rate : 72.0 Kbps
Maximum bit rate : 76.7 Kbps
Channel(s) : 1 channel
Channel positions : Front: C
Sampling rate : 44.1 KHz
Compression mode : Lossy
Stream size : 2.32 MiB (19%)
Описание: Для начала давайте посмотрим какая у Вас прошивка. Если Ваша прошивка ниже 3.55, то я рекомендую скачать официальную прошивку PS3 3.55 (далее OFW). И только с официальной 3.55 прошиваться на кастомную.
1) Создаём на Вашей FAT32 флешке папку PS3, а в этой папке создаём папку UPDATE. Должен получиться путь вида F:\PS3\UPDATE. Кидаем туда файл прошивки. Имя этого файла всегда одинаковое - PS3UPDAT.PUP.
2) Далее "Настройки системы" -> "Обновление системы" (Чтот типо того, точно не помню). Нажимаете... PS3 находит обновление и перед установкой показывает Вам его версию. Так что смотрите чтоб там не было написано 3.56 ))
3) Принимаете соглашение... далее-далее... и всё. Консоль прошита.
4) Потом на ту же флешку кидаем кастом прошивку. И шьётесь как шились на офф прошу. Вот и всё. ))

Скриншоты

Создавать темы 20-Мар-2014 17:44

[Профиль]  [ЛС] 
Показать сообщения:    
Ответить на тему

Текущее время: 18-Окт 20:02

Часовой пояс: UTC + 5



Вы не можете начинать темы
Вы не можете отвечать на сообщения
Вы не можете редактировать свои сообщения
Вы не можете удалять свои сообщения
Вы не можете голосовать в опросах
Вы не можете прикреплять файлы к сообщениям
Вы не можете скачивать файлы