Принцесса и семь мастеров кунг-фу / Princess And Seven Kung Fu Masters (Вон Цзин) [2013, боевик, комедия, приключения, DVDRip] A1

Ответить на тему
 

Каротажник ®

Стаж: 4 года 2 месяца

Сообщений: 195

Симпатии: 211

Принцесса и семь мастеров кунг-фу / Princess And Seven Kung Fu Masters

Год выпуска: 2013
Страна: Китай
Жанр: боевик, комедия, приключения-Продолжительность: 01:32:06
Перевод: Авторский (одноголосый) iDimo-Режиссёр: Вон Цзин
В ролях: Саммо Хунг, Люн Сю Лун, Эрик Цанг, Сандра Нг, Юэнь Ва, Рональд Чэн, Се На, Цзян Луся, Деннис То, Ши Син Юй, Тимми Хунг, Филип Нг, Роуз Чан и Яо Мэн-
Эпоха . Китайские военачальники борятся против японских шпионов. В маленьком поселении под названием Счастливый Городок, который находится на северо-востоке Китая, заправляет военачальник Лам Квок-Дун. Он не слишком умен и дальновиден для лидера, но зато в патриотизме и неподкупности ему не занимать. Помогают ему семь мастеров кунг-фу, притворяющиеся простыми обывателями в Счастливом Городке. Они доблестно защищают этот город от японских злодеев и бандитов, и поэтому туда никто из плохишей не суется. Но все осложняется, когда в город проникает банда предателей из Пещеры Тигра во главе со шпионкой-ниндзя Киёко Куросавой. У нее коварные планы - они решает влюбить в себя Лама, чтобы выйти замуж за него и стать во главе его армии. Семь мастеров должны спасти военачальника и все поселение от гнусных предателей, пока не настало слишком поздно…- -
Качество: DVDRip
Формат: Avi-Видео: MPEG-4 Visual, 720 x 304, ~1747 kbps
Аудио: AC3, 6 ch, 384 kbps

Media Info

Format : AVI
Format/Info : Audio Video Interleave
Format profile : OpenDML
File size : 1.38 GiB
Duration : 1h 32mn
Overall bit rate : 2 143 Kbps
Writing application : Lavf51.12.1
Video
ID : 0
Format : MPEG-4 Visual
Format profile : [email protected]
Format settings, BVOP : No
Format settings, QPel : No
Format settings, GMC : No warppoints
Format settings, Matrix : Default (H.263)
Codec ID : FMP4
Duration : 1h 32mn
Bit rate : 1 747 Kbps
Width : 720 pixels
Height : 304 pixels
Display aspect ratio : 2.35:1
Frame rate : 23.976 fps
Color space : YUV
Chroma subsampling : 4:2:0
Bit depth : 8 bits
Scan type : Progressive
Compression mode : Lossy
Bits/(Pixel*Frame) : 0.333
Stream size : 1.12 GiB (82%)
Writing library : Lavc51.40.4
Audio
ID : 1
Format : AC-3
Format/Info : Audio Coding 3
Mode extension : CM (complete main)
Format settings, Endianness : Big
Codec ID : 2000
Duration : 1h 32mn
Bit rate mode : Constant
Bit rate : 384 Kbps
Channel(s) : 6 channels
Channel positions : Front: L C R, Side: L R, LFE
Sampling rate : 48.0 KHz
Bit depth : 16 bits
Compression mode : Lossy
Stream size : 253 MiB (18%)
Alignment : Aligned on interleaves
Interleave, duration : 32 ms (0.77 video frame)
Interleave, preload duration : 32 ms

Скриншоты


Создавать темы 21-Мар-2014 10:05

[Профиль]  [ЛС] 
Показать сообщения:    
Ответить на тему

Текущее время: 15-Дек 09:44

Часовой пояс: UTC + 5



Вы не можете начинать темы
Вы не можете отвечать на сообщения
Вы не можете редактировать свои сообщения
Вы не можете удалять свои сообщения
Вы не можете голосовать в опросах
Вы не можете прикреплять файлы к сообщениям
Вы не можете скачивать файлы