Хоббит: Пустошь Смауга / The Hobbit: The Desolation of Smaug (Питер Джексон) [2013 г., фэнтези, приключения, HDRip] [Лицензия / iTunes]

Тема закрыта
 

Suxrob89 ®

Стаж: 7 лет 3 месяца

Сообщений: 933

Симпатии: 564

- -Хоббит: Пустошь Смауга / The Hobbit: The Desolation of Smaug-«Beyond darkness... beyond desolation... lies the greatest danger of all»- Год выпуска: 2013
Страна: США, Новая Зеландия
Студия: New Line Cinema
Жанр: фэнтези, приключения
Продолжительность: 02:41:17
Перевод: Дублированный [Лицензия / iTunes]
Примечание: На Эльфийские, Оркские и т.д. диалоги вшиты русские субтитры!-Режиссер: Питер Джексон-В ролях: Мартин Фриман, Иэн МакКеллен, Ричард Армитидж, Джеймс Несбитт, Кен Стотт, Грэм МакТавиш, Уильям Кирчер, Стивен Хантер-Описание: После успешного перехода через Туманные горы, Торин и компания вынуждены обратиться за помощью к могучему незнакомцу, прежде чем отправиться в опасное Лихолесье без волшебника. Их компания обязана завершить свое путешествие к Одинокой горе, где Бэггинсу нужно будет найти потайную дверь, чтобы добраться до клада Смауга…- -Дата мировой премьеры: 2 декабря 2013
Дата российской премьеры: 18 декабря 2013, «Каро-Премьер»
Дата выхода DVD релиза: 17 апреля 2014, «CP Дистрибуция»
Бюджет: $225 000 000
Сборы в США: $257 903 709
Сборы в мире: $686 400 000 = $944 303 709
Сборы в России: $44 946 959-Качество: HDRip
Формат: MKV
Видео: XviD, 1 722 Kbps, 720x304, 23.976 fps
Аудио 1: AC3, 6 ch, 384 Кбит/с, 48.0 KHz [RUS]
Аудио 2: AC3, 6 ch, 448 Кбит/с, 48.0 KHz [ENG]

Media info

E:\Hobbit.Pustosh.Smauga.2013.D.HDRip.ITUNES.mkv
   General
      Unique ID : 216496075048502141987485081687024429480 (0xA2DFA09BD53A40A3897EA9C15CCF69A8)
      Complete name : E:\Hobbit.Pustosh.Smauga.2013.D.HDRip.ITUNES.mkv
      Format : Matroska
      Format version : Version 4 / Version 2
      File size : 2.94 GiB
      Duration : 2h 41mn
      Overall bit rate : 2 606 Kbps
      Encoded date : UTC 2014-03-24 19:59:11
      Writing application : mkvmerge v6.3.0 ('You can't stop me!') built on Jun 28 2013 20:09:41
      Writing library : libebml v1.3.0 + libmatroska v1.4.0
   Video #1
      ID : 1
      Format : MPEG-4 Visual
      Format profile : Advanced [email protected]
      Format settings, BVOP : Yes
      Format settings, QPel : No
      Format settings, GMC : No warppoints
      Format settings, Matrix : Custom
      Codec ID : V_MS/VFW/FOURCC / XVID
      Codec ID/Hint : XviD
      Duration : 2h 41mn
      Bit rate : 1 722 Kbps
      Width : 720 pixels
      Height : 304 pixels
      Display aspect ratio : 2.35:1
      Frame rate mode : Constant
      Frame rate : 23.976 fps
      Color space : YUV
      Chroma subsampling : 4:2:0
      Bit depth : 8 bits
      Scan type : Progressive
      Compression mode : Lossy
      Bits/(Pixel*Frame) : 0.328
      Stream size : 1.94 GiB (66%)
      Writing library : XviD 1.2.1 (UTC 2008-12-04)
      Default : Yes
      Forced : No
   Audio #2
      ID : 2
      Format : AC-3
      Format/Info : Audio Coding 3
      Mode extension : CM (complete main)
      Format settings, Endianness : Big
      Codec ID : A_AC3
      Duration : 2h 41mn
      Bit rate mode : Constant
      Bit rate : 448 Kbps
      Channel(s) : 6 channels
      Channel positions : Front: L C R, Side: L R, LFE
      Sampling rate : 48.0 KHz
      Bit depth : 16 bits
      Compression mode : Lossy
      Stream size : 517 MiB (17%)
      Default : Yes
      Forced : No
   Audio #3
      ID : 3
      Format : AC-3
      Format/Info : Audio Coding 3
      Mode extension : CM (complete main)
      Format settings, Endianness : Big
      Codec ID : A_AC3
      Duration : 2h 41mn
      Bit rate mode : Constant
      Bit rate : 384 Kbps
      Channel(s) : 6 channels
      Channel positions : Front: L C R, Side: L R, LFE
      Sampling rate : 48.0 KHz
      Bit depth : 16 bits
      Compression mode : Lossy
      Stream size : 443 MiB (15%)
      Default : No
      Forced : No

Скриншоты

-


Последний раз редактировалось: Suxrob89 (2014-03-26 17:38), всего редактировалось 2 раз(а)

Создавать темы 22-Мар-2014 18:19

[Профиль]  [ЛС] 

pavel_79

Стаж: 5 лет 7 месяцев

Сообщений: 97

Симпатии: 3

Ух ты!огромное спасибо!

Создавать темы 22-Мар-2014 19:45

[Профиль]  [ЛС] 

aziiz

Стаж: 5 лет 9 месяцев

Сообщений: 10

скрины не совпадают

Создавать темы 22-Мар-2014 21:10

[Профиль]  [ЛС] 

ahilmaniya

Стаж: 4 года 1 месяц

Сообщений: 27

ух ты! чёта ваще мелко весит для 3 часов

Создавать темы 22-Мар-2014 23:23

[Профиль]  [ЛС] 

darkelfest

Стаж: 5 лет

Сообщений: 3

Большой тебе поклон автор.... Дождались.... Это такой кайф, особенно - когда ты эту часть не смотрел вообще!

Создавать темы 23-Мар-2014 02:56

[Профиль]  [ЛС] 

RedBull

Стаж: 6 лет 7 месяцев

Сообщений: 185

Симпатии: 4

Неужели,спасибо автору

Создавать темы 23-Мар-2014 03:49

[Профиль]  [ЛС] 

abut

Стаж: 4 года

Сообщений: 27

Симпатии: 7

Автору спасибо, но откуда? Ведь на ДВД выходит только в апреле.

Создавать темы 23-Мар-2014 10:57

[Профиль]  [ЛС] 

d0_CENT

Стаж: 5 лет 4 месяца

Сообщений: 8

Отпишитесь, кто скачал, насчет качества!

Создавать темы 23-Мар-2014 15:23

[Профиль]  [ЛС] 

Тоха

Стаж: 6 лет 4 месяца

Сообщений: 45

Симпатии: 2

Жмоты добавьте скорости!

Создавать темы 23-Мар-2014 17:04

[Профиль]  [ЛС] 

Gigabit

Стаж: 5 лет 1 месяц

Сообщений: 89

Симпатии: 8

Блиин и это уже добавили? :(

Создавать темы 24-Мар-2014 12:12

[Профиль]  [ЛС] 

roman

Стаж: 3 года 11 месяцев

Сообщений: 15

Симпатии: 1

Дайте раздачу плис)

Создавать темы 24-Мар-2014 20:58

[Профиль]  [ЛС] 

Иви

Стаж: 5 лет 10 месяцев

Сообщений: 688

Симпатии: 65

Хоббит: Пустошь Смауга / The Hobbit: The Desolation of Smaug (Питер Джексон) [2013 г., фэнтези, приключения, HDRip] [Лицензия / iTunes]

Создавать темы 24-Мар-2014 22:58

[Профиль]  [ЛС] 
Показать сообщения:    
Тема закрыта

Текущее время: 21-Ноя 20:57

Часовой пояс: UTC + 5



Вы не можете начинать темы
Вы не можете отвечать на сообщения
Вы не можете редактировать свои сообщения
Вы не можете удалять свои сообщения
Вы не можете голосовать в опросах
Вы не можете прикреплять файлы к сообщениям
Вы не можете скачивать файлы