Васаби / Wasabi (Жерар Кравчик / Gerard Krawczyk) [2001 г., Боевик, Триллер, Драма, Комедия, Криминал BDRip 1080p]

Ответить на тему
 

Phantomhive ®

Стаж: 4 года 5 месяцев

Сообщений: 218

Симпатии: 10

Васаби / Wasabi--«For those who take their action raw.»- Год выпуска: 2001
Страна: Франция, Япония
Жанр: Боевик, Триллер, Драма, Комедия, Криминал
Продолжительность: 01:33:44
Перевод:
профессиональный (полное дублирование)
профессиональный (многоголосый закадровый)
профессиональный (двухголосый закадровый)
авторский (одноголосый закадровый)
Субтитры: Русские, Английские, Французские-Режиссер: Жерар Кравчик / Gerard Krawczyk
Сценарий: Люк Бессон / Luc Besson
Продюсер: Люк Бессон / Luc Besson, Дидье Хорау / Didier Hoarau, Сохей Котаки / Shohei Kotaki, Канжиро Сакура / Kanjiro Sakura, Мехди Сайа / Mehdi Sayah
Оператор: Жерар Стерин / Gérard Sterin
Композитор: Жюльен Шултейс / Julien Schultheis, Эрик Серра / Eric Serra
Художник: Жак Бюфнуар, Жан-Жак Жерноль, Агнес Фалько
Монтаж: Ян Херв-В ролях: Жан Рено (Hubert Fiorentini), Игорь Тарадайкин, Риоко Хиросуэ (Yumi Yoshimido), Мишель Мюллер (Maurice 'Momo'), Алексей Колган, Кароль Буке (Sofia), Анна Каменкова, Йоши Оида (Takanawa), Рогволд Суховерко, Кристиан Синниже (Le Squale), Рудольф Панков, Александр Брик (Irène)-Дублёры: Игорь Тарадайкин (Hubert Fiorentini), Алексей Колган (Maurice 'Momo'), Анна Каменкова (Sofia), Рогволд Суховерко (Takanawa), Рудольф Панков (Le Squale), Дмитрий Филимонов (Olivier), Вадим Андреев (Ishibashi), Вячеслав Баранов (Van Eyck), Леонид Белозорович (Douanier 1), Юрий Маляров (Jean Baptiste 2), Александр Груздев (Jean Baptiste 1), Олег Куценко (Commissaire Japonais)-Описание: Полицейский Юбер крут нравом и не дает спуску преступникам на парижских улицах. Лишь одно терзает Юбера и он страдает уже 19 лет - именно столько прошло с тех пор, как его в Токио покинула любимая женщина. Все эти 19 лет Юбер страдает, но не другой подруги жизни не находит. И вдруг неожиданно из Токио приходит известие, что его любимая умерла и Юбер - единственный наследник. По прилету в Токио его ждет несколько шокирующих новостей. Во-первых, у него есть дочка Юми 19 лет от роду, во-вторых, на счетах его бывшей подруги лежат 200 миллионов долларов, а в-третьих, эти деньги очень хочет заполучить...-Бюджет: €15 300 000
Сборы в США: $97 220
Сборы в России: $350 194
Сборы в мире: $10 366 360
Мировая премьера: 31 октября 2001
Релиз на DVD: 23 апреля 2009, «CP-Digital»-Качество: BDRip 1080p by [email protected]
Формат: MKV [SAMPLE]
Видео кодек: AVC
Аудио кодек: AC3
Видео: AVC / 13000 kbps / 1916x816 / 24 fps / 2.35:1 / High Profile 4.1
Аудио #01: 48 kHz, AC3, 5.1 ch, 448 kbps |Дублированный, R5 Союз-Видео|
Аудио #02: 48 kHz, AC3, 5.1 ch, 448 kbps |Многоголосый, R5 CP-Digital|
Аудио #03: 48 kHz, AC3, 5.1 ch, 384 kbps |Многоголосый, LDV|
Аудио #04: 48 kHz, AC3, 5.1 ch, 384 kbps |Многоголосый, Домашнее видео|
Аудио #05: 48 kHz, AC3, 5.1 ch, 448 kbps |Двухголосый, Гланц и Королёва|
Аудио #06: 48 kHz, AC3, 2.0 ch, 192 kbps |Многоголосый, НТВ|
Аудио #07: 48 kHz, AC3, 2.0 ch, 192 kbps |Многоголосый, РТР|
Аудио #08: 48 kHz, AC3, 2.0 ch, 192 kbps |Авторский, Володарский|
Аудио #09: 48 kHz, AC3, 2.0 ch, 192 kbps |Авторский, Векшин|
Аудио #10: 48 kHz, AC3, 2.0 ch, 192 kbps |Авторский, Гранкин|
Аудио #11: 48 kHz, AC3, 5.1 ch, 448 kbps |Оригинальный французский|
Чаптеры: есть, 28 штук, с DVD R2, подписанные-

Доп. информация

Люк Бессон: «Жан уже давно хотел снять фильм в Японии, где он стал звездой первой величины после «Голубой бездны». Но мы никак не могли придумать сюжет. Однажды я привёз в Японию фильм "Жанна д'Арк". Когда я вышел на сцену, молодая японская актриса подарила мне цветы. Это была Риоко Хиросю, местная Милен Фармер. Я знал, что она записала два или три альбома и снялась в нескольких фильмах. Вечером за ужином меня посадили напротив неё. Она сказала, что смотрела все мои фильмы и очень любит их. Я тогда ещё не видел её фильмов и сказал, что хотел бы посмотреть. А к концу ужина прибежал какой-то взмыленный парень и протянул мне видеокассету. Вернувшись в отель, я поставил кассету, думая, что посмотрю пять или десять минут. Но я не мог оторваться от экрана: фильм был просто потрясающий! Всё закончилось тем, что я купил права на французский ремейк этой картины с Жаном и Риоко в главных ролях».
Роль старого друга Фиорентини Момо, живущего в Японии, исполнил Мишель Мюллер – актёр, также принимавший участие в «Такси-2».
Мишель Мюллер: «Момо когда-то приехал в Японию вместе с Фиорентини, и ему там так понравилось, что он решил остаться. Его коллега Фиорентини для него – идеал, оживший киногерой, и Момо изо всех сил старается ему помочь. Фиорентини не будет поворачивать ручку, чтобы открыть дверь, он просто вышибет её ногой. А Момо похож на восхищённого зрителя, который мечтает принять участие в спектакле».
Во время съёмок в Токио и Киото Риоко Хиросю и Жана Рено преследовали фанаты. Некоторые уличные сцены были сняты наспех, поскольку прохожие, узнав актёров, тут же бежали к ним.
Интересно, что съёмки в Японии в основном проводились нелегально. Дело в том, что любой квадратный метр земли, любой отрезок улицы в Японии имеют своего владельца. Получить согласие всех собственников – долгая и сложная процедура, поэтому создатели фильма «Васаби» решили обойтись без неё. Говоря об этом фильме, режиссёр Жерар Кравчик шутливо замечает, что работа над «Васаби» напомнила ему студенческие годы и учебные короткометражки, которые он создавал, не имея никаких разрешений на съёмки.

Media Info

General
Unique ID : 223850962618873533990437015884946434965 (0xA86820901910B5C0B3CE392638476B95)
Complete name : F:\Васаби\Васаби.mkv
Format : Matroska
Format version : Version 2
File size : 10.8 GiB
Duration : 1h 34mn
Overall bit rate : 16.5 Mbps
Encoded date : UTC 2011-04-25 04:59:39
Writing application : mkvmerge v4.6.0 ('Still Crazy After All These Years') built on Mar 10 2011 02:50:32
Writing library : libebml v1.2.0 + libmatroska v1.1.0
Video
ID : 1
Format : AVC
Format/Info : Advanced Video Codec
Format profile : [email protected]
Format settings, CABAC : Yes
Format settings, ReFrames : 5 frames
Codec ID : V_MPEG4/ISO/AVC
Duration : 1h 34mn
Width : 1 916 pixels
Height : 816 pixels
Display aspect ratio : 2.35:1
Frame rate mode : Constant
Frame rate : 24.000 fps
Color space : YUV
Chroma subsampling : 4:2:0
Bit depth : 8 bits
Scan type : Progressive
Title : Wasabi.2001.BluRay.1080p.AC3.x264-CRiSC
Language : French
Default : Yes
Forced : No
Color primaries : BT.709
Transfer characteristics : BT.709
Matrix coefficients : BT.709
Audio #1
ID : 2
Format : AC-3
Format/Info : Audio Coding 3
Mode extension : CM (complete main)
Format settings, Endianness : Big
Codec ID : A_AC3
Duration : 1h 34mn
Bit rate mode : Constant
Bit rate : 448 Kbps
Channel(s) : 6 channels
Channel positions : Front: L C R, Side: L R, LFE
Sampling rate : 48.0 KHz
Bit depth : 16 bits
Compression mode : Lossy
Stream size : 302 MiB (3%)
Title : Дубляж R5, Союз-Видео @ AC3 5.1 448kbps
Language : Russian
Default : Yes
Forced : No
Audio #2
ID : 3
Format : AC-3
Format/Info : Audio Coding 3
Mode extension : CM (complete main)
Format settings, Endianness : Big
Codec ID : A_AC3
Duration : 1h 34mn
Bit rate mode : Constant
Bit rate : 448 Kbps
Channel(s) : 6 channels
Channel positions : Front: L C R, Side: L R, LFE
Sampling rate : 48.0 KHz
Bit depth : 16 bits
Compression mode : Lossy
Stream size : 302 MiB (3%)
Title : MVO R5, CP-Digital @ AC3 5.1 448kbps
Language : Russian
Default : No
Forced : No
Audio #3
ID : 4
Format : AC-3
Format/Info : Audio Coding 3
Mode extension : CM (complete main)
Format settings, Endianness : Big
Codec ID : A_AC3
Duration : 1h 34mn
Bit rate mode : Constant
Bit rate : 384 Kbps
Channel(s) : 6 channels
Channel positions : Front: L C R, Side: L R, LFE
Sampling rate : 48.0 KHz
Bit depth : 16 bits
Compression mode : Lossy
Stream size : 258 MiB (2%)
Title : MVO LDV @ AC3 5.1 384kbps
Language : Russian
Default : No
Forced : No
Audio #4
ID : 5
Format : AC-3
Format/Info : Audio Coding 3
Codec ID : A_AC3
Duration : 1h 34mn
Channel(s) : 6 channels
Sampling rate : 48.0 KHz
Compression mode : Lossy
Title : MVO Домашнее видео @ AC3 5.1 384kbps
Language : Russian
Default : No
Forced : No
Audio #5
ID : 6
Format : AC-3
Format/Info : Audio Coding 3
Mode extension : CM (complete main)
Format settings, Endianness : Big
Codec ID : A_AC3
Duration : 1h 34mn
Bit rate mode : Constant
Bit rate : 448 Kbps
Channel(s) : 6 channels
Channel positions : Front: L C R, Side: L R, LFE
Sampling rate : 48.0 KHz
Bit depth : 16 bits
Compression mode : Lossy
Stream size : 302 MiB (3%)
Title : DVO, Гланц и Королёва @ AC3 5.1 448kbps
Language : Russian
Default : No
Forced : No
Audio #6
ID : 7
Format : AC-3
Format/Info : Audio Coding 3
Codec ID : A_AC3
Duration : 1h 34mn
Channel(s) : 2 channels
Sampling rate : 48.0 KHz
Compression mode : Lossy
Title : MVO, НТВ @ AC3 2.0 192kbps
Language : Russian
Default : No
Forced : No
Audio #7
ID : 8
Format : AC-3
Format/Info : Audio Coding 3
Codec ID : A_AC3
Duration : 1h 34mn
Channel(s) : 2 channels
Sampling rate : 48.0 KHz
Compression mode : Lossy
Title : MVO, РТР @ AC3 2.0 192kbps
Language : Russian
Default : No
Forced : No
Audio #8
ID : 9
Format : AC-3
Format/Info : Audio Coding 3
Mode extension : CM (complete main)
Format settings, Endianness : Big
Codec ID : A_AC3
Duration : 1h 34mn
Bit rate mode : Constant
Bit rate : 192 Kbps
Channel(s) : 2 channels
Channel positions : Front: L R
Sampling rate : 48.0 KHz
Bit depth : 16 bits
Compression mode : Lossy
Stream size : 129 MiB (1%)
Title : AVO, Володарский @ AC3 2.0 192kbps
Language : Russian
Default : No
Forced : No
Audio #9
ID : 10
Format : AC-3
Format/Info : Audio Coding 3
Mode extension : CM (complete main)
Format settings, Endianness : Big
Codec ID : A_AC3
Duration : 1h 34mn
Bit rate mode : Constant
Bit rate : 192 Kbps
Channel(s) : 2 channels
Channel positions : Front: L R
Sampling rate : 48.0 KHz
Bit depth : 16 bits
Compression mode : Lossy
Stream size : 129 MiB (1%)
Title : AVO, Векшин @ AC3 2.0 192kbps
Language : Russian
Default : No
Forced : No
Audio #10
ID : 11
Format : AC-3
Format/Info : Audio Coding 3
Mode extension : CM (complete main)
Format settings, Endianness : Big
Codec ID : A_AC3
Duration : 1h 34mn
Bit rate mode : Constant
Bit rate : 192 Kbps
Channel(s) : 2 channels
Channel positions : Front: L R
Sampling rate : 48.0 KHz
Bit depth : 16 bits
Compression mode : Lossy
Stream size : 129 MiB (1%)
Title : AVO, Гранкин @ AC3 2.0 192kbps
Language : Russian
Default : No
Forced : No
Audio #11
ID : 12
Format : AC-3
Format/Info : Audio Coding 3
Codec ID : A_AC3
Duration : 1h 34mn
Channel(s) : 6 channels
Sampling rate : 48.0 KHz
Compression mode : Lossy
Title : Original @ AC3 5.1 448kbps
Language : French
Default : No
Forced : No
Text #1
ID : 13
Format : UTF-8
Codec ID : S_TEXT/UTF8
Codec ID/Info : UTF-8 Plain Text
Title : R5 @ SRT
Language : Russian
Default : No
Forced : No
Text #2
ID : 14
Format : UTF-8
Codec ID : S_TEXT/UTF8
Codec ID/Info : UTF-8 Plain Text
Title : Flexor @ SRT
Language : Russian
Default : No
Forced : No
Text #3
ID : 15
Format : UTF-8
Codec ID : S_TEXT/UTF8
Codec ID/Info : UTF-8 Plain Text
Title : Eng @ SRT
Language : English
Default : No
Forced : No
Text #4
ID : 16
Format : UTF-8
Codec ID : S_TEXT/UTF8
Codec ID/Info : UTF-8 Plain Text
Title : Fre @ SRT
Language : French
Default : No
Forced : No
Menu
00:00:00.000 : en:Start
00:03:13.625 : en:The Chief's Son
00:05:59.499 : en:Tranny Interview
00:07:40.749 : en:Banque de L'Etoile Robbery
00:10:02.666 : en:Two Month Suspension
00:12:31.332 : en:Dinner With Sofia
00:16:18.748 : en:"My Name Is Hishibashi"
00:18:39.415 : en:Welcome to Japan
00:20:15.956 : en:Momo
00:24:35.039 : en:Sole Legatee
00:29:12.372 : en:Yumi
00:32:58.789 : en:The Crematorium
00:39:20.871 : en:Miko's File
00:42:52.704 : en:Yumi's Inheritance
00:46:28.246 : en:Red Alert
00:47:21.745 : en:Goons With Shades
00:51:42.912 : en:Arms & Fashion Show
00:55:16.078 : en:The Nightclub
00:58:31.369 : en:Yakuza Shootout
01:03:49.827 : en:Names & Numbers
01:05:21.702 : en:Like Tigers & Wolves
01:08:34.910 : en:Takanawa aka the Zebra
01:12:13.243 : en:King of Clubs
01:13:52.785 : en:Wasabi
01:16:56.159 : en:Message in Kyoto
01:19:03.742 : en:Making a Withdrawal
01:23:04.950 : en:The Account Is Closed
01:25:21.158 : en:Farewells

Скриншоты

Создавать темы 23-Мар-2014 09:03

[Профиль]  [ЛС] 

Mercuriy

Стаж: 6 лет

Сообщений: 418

Симпатии: 100

Phantomhive, Раздача планируется или как? Знатьбы чтобы лишний раз не парится??

Создавать темы 24-Мар-2014 13:47

[Профиль]  [ЛС] 

Phantomhive ®

Стаж: 4 года 5 месяцев

Сообщений: 218

Симпатии: 10

раздача идёт кахдий день

Создавать темы 24-Мар-2014 15:20

[Профиль]  [ЛС] 

Mercuriy

Стаж: 6 лет

Сообщений: 418

Симпатии: 100

Phantomhive, Что-то не заметно за 24 часа 0 байт.
Какой провайлер если УГ то эту тему посмотрите пожалуйста https://tas-ix.net/viewtopic.php?t=58392
А может Ваш фильтр не пускает нас?? от сюда попробуйте https://tas-ix.net/viewtopic.php?t=52112

Создавать темы 24-Мар-2014 15:41

[Профиль]  [ЛС] 

Phantomhive ®

Стаж: 4 года 5 месяцев

Сообщений: 218

Симпатии: 10

простите я таких вешах не разбираюс если у вас ест teamviewer вы можите мне настроит

Создавать темы 24-Мар-2014 15:59

[Профиль]  [ЛС] 
Показать сообщения:    
Ответить на тему

Текущее время: 18-Ноя 02:29

Часовой пояс: UTC + 5



Вы не можете начинать темы
Вы не можете отвечать на сообщения
Вы не можете редактировать свои сообщения
Вы не можете удалять свои сообщения
Вы не можете голосовать в опросах
Вы не можете прикреплять файлы к сообщениям
Вы не можете скачивать файлы