МАША И МЕДВЕДЬ / (Серий 40-49 ) (Олег Кузовков, Олег Ужинов, Денис Червяцов) [2014 г., комедия, приключения, семейный, мультфильм, DVDRip]

Ответить на тему
 

igor1968 ®

Стаж: 5 лет 5 месяцев

Сообщений: 366

Симпатии: 197

МАША И МЕДВЕДЬ
Год выпуска: 2014
Страна:
Жанр: комедия, приключения, семейный, мультфильм
Продолжительность: ~00.07.00
Перевод: Не требуется
Режиссер: Олег Кузовков, Олег Ужинов, Денис Червяцов
В ролях: Алина Кукушкина (Маша), Эдуард Назаров, Борис Кутневич (Медведь)
Мультсериал про девочку Машу, которая никому не дает покоя, и в первую очередь — своему другу Медведю.
Сериал рассчитан в первую очередь на детскую аудиторию от 3 до 9 лет. Тем не менее мультфильм семейный, интересный для всех возрастов, взрослые тоже могут посмеяться над приключениями Маши и Медведя. Несмотря на то, что персонажи для зрителя являются знакомыми с детства по русской народной сказке, предполагается некоторая адаптация зрительского восприятия к новой трактовке старой истории — персонажи живут в наше время, их быт, хоть и абсурден, но современен, их отношения — это отношения не девочки и зверя, а ребенка и взрослого, маленького человечка и огромного мира.- -

Список серий

40 серия. Красота - Страшная сила
41 серия. Дело в шляпе
42 серия. День кино
43 серия. Героями не рождаются
44 серия. Раз в году
45 серия. Запутанная история
46 серия. Учитель танцев
47 серия. Крик победы
48 серия. Пещерный медведь
49 серия. Дорогая передача
-

Внимание! Раздача ведётся путём добавления новых серий


Внимание! Раздача ведётся путём добавления новых серий; при каждом добавлении создётся новый торрент. Чтобы начать докачку новой серии, пользователям необходимо сделать следующее:
1) остановить скачивание,
2) удалить старый торрент у себя из клиента (старые серии удалять не надо),
3) скачать новый торрент и запустить его у себя в клиенте вместо старого, при этом указать клиенту путь в старую папку куда и должно происходить скачивание новых серий.
Ваш клиент при этом должен произвести хеширование (проверку) старой папки (если не производит сам - помогите ему сделать это), и будет докачивать только те серии которых у вас ещё нет. Старые серии при этом не удаляются, а продолжают раздаваться!
Eсли вы уже удалили старые серии, то предотвратить повторную закачку старых серий можно, отжав галочку в соответсвующих местах при запуске нового торрента.
-Добавлена 49 серия Перекачайте торрент-Качество: DVDRip
Формат: AVI
Видео кодек: XviD
Аудио кодек: MPEG Audio
Видео: 1280x720 (1.78:1), 25 fps, Intel ITU H.264 ~3472 kbps avg, 0.15 bit/pixel
Аудио: 44.100 kHz, MPEG Layer 3, 2 ch, ~320.00 kbps avg-

MediaInfo

General
Complete name : Маша и Медведь\40 серия. Красота - Страшная сила - 720p.avi
Format : AVI
Format/Info : Audio Video Interleave
File size : 188 MiB
Duration : 6mn 54s
Overall bit rate : 3 805 Kbps
Writing application : Lavf51.12.1
Video
ID : 0
Format : AVC
Format/Info : Advanced Video Codec
Format profile : [email protected]
Format settings, CABAC : No
Format settings, ReFrames : 1 frame
Codec ID : H264
Duration : 6mn 54s
Bit rate : 3 473 Kbps
Width : 1 280 pixels
Height : 720 pixels
Display aspect ratio : 16:9
Frame rate mode : Variable
Frame rate : 25.000 fps
Color space : YUV
Chroma subsampling : 4:2:0
Bit depth : 8 bits
Scan type : Progressive
Bits/(Pixel*Frame) : 0.151
Stream size : 171 MiB (91%)
Audio
ID : 1
Format : MPEG Audio
Format version : Version 1
Format profile : Layer 3
Mode : Joint stereo
Mode extension : MS Stereo
Codec ID : 55
Codec ID/Hint : MP3
Duration : 6mn 54s
Bit rate mode : Constant
Bit rate : 320 Kbps
Channel count : 2 channels
Sampling rate : 44.1 KHz
Compression mode : Lossy
Stream size : 15.8 MiB (8%)
Alignment : Aligned on interleaves
Interleave, duration : 26 ms (0.65 video frame)
Writing library : LAME3.97

Скриншоты

- -


Последний раз редактировалось: igor1968 (2015-04-02 08:24), всего редактировалось 28 раз(а)

Создавать темы 23-Мар-2014 09:25

[Профиль]  [ЛС] 

kottaman

Стаж: 5 лет 5 месяцев

Сообщений: 17

Держи лайк

Создавать темы 23-Мар-2014 11:08

[Профиль]  [ЛС] 

roma1974

Стаж: 4 года 1 месяц

Сообщений: 1

++++++++++++++++

Создавать темы 26-Май-2014 22:41

[Профиль]  [ЛС] 

A31013

Стаж: 4 года 10 месяцев

Сообщений: 39

Симпатии: 9

красава

Создавать темы 27-Май-2014 07:50

[Профиль]  [ЛС] 

pamirmir

Стаж: 5 лет

Сообщений: 70

Симпатии: 2

Спасибо

Создавать темы 08-Июн-2014 17:43

[Профиль]  [ЛС] 

sarvinoz

Стаж: 5 лет 5 месяцев

Сообщений: 33

spasibochki

Создавать темы 17-Июн-2014 12:57

[Профиль]  [ЛС] 

keshun2006

Стаж: 4 года 5 месяцев

Сообщений: 5

большое спасибо

Создавать темы 07-Авг-2014 22:09

[Профиль]  [ЛС] 

ligasvf

Стаж: 3 года 9 месяцев

Сообщений: 1

Большое спасибо!!!

Создавать темы 19-Сен-2014 00:46

[Профиль]  [ЛС] 

pamirmir

Стаж: 5 лет

Сообщений: 70

Симпатии: 2

Большое спасибо!

Создавать темы 19-Дек-2014 17:26

[Профиль]  [ЛС] 

rahimjon23

Стаж: 4 года 1 месяц

Сообщений: 7

Добрый день, у меня остановилось на 71%! Помогите до качать, сынок ждет не дождеться. Заранее спасибо!

Создавать темы 09-Фев-2015 11:32

[Профиль]  [ЛС] 

yandeh_

Стаж: 4 года 1 месяц

Сообщений: 47

Симпатии: 7

будет продолжение?????

Создавать темы 09-Фев-2015 21:03

[Профиль]  [ЛС] 

igor1968 ®

Стаж: 5 лет 5 месяцев

Сообщений: 366

Симпатии: 197

918282Добрый день, у меня остановилось на 71%! Помогите до качать, сынок ждет не дождеться. Заранее спасибо!
Уважаемые скачивающие прочтите здесь

Создавать темы 10-Фев-2015 15:59

[Профиль]  [ЛС] 

igor1968 ®

Стаж: 5 лет 5 месяцев

Сообщений: 366

Симпатии: 197

918389будет продолжение?????
Ждем ( как только так сразу ) по мере поступления из мира ( интернет )

Создавать темы 10-Фев-2015 16:01

[Профиль]  [ЛС] 

DMITRYI

Стаж: 4 года 6 месяцев

Сообщений: 5

ОГРОМНОЕ СПАСИБО!!! ещё и так быстро скачалось за два часа! никогда ещё такого не было!!!

Создавать темы 11-Фев-2015 21:31

[Профиль]  [ЛС] 

pamirmir

Стаж: 5 лет

Сообщений: 70

Симпатии: 2

СПАСИБО !!! За 48

Создавать темы 18-Фев-2015 21:00

[Профиль]  [ЛС] 
Показать сообщения:    
Ответить на тему

Текущее время: 24-Авг 04:28

Часовой пояс: UTC + 5



Вы не можете начинать темы
Вы не можете отвечать на сообщения
Вы не можете редактировать свои сообщения
Вы не можете удалять свои сообщения
Вы не можете голосовать в опросах
Вы не можете прикреплять файлы к сообщениям
Вы не можете скачивать файлы