Судьба: Ночь Схватки OVA / Fate/stay night TV reproduction (Ямагути Юдзи) [OVA] [2 из 2] [без хардсаба] [JAP + SUB] [2010 г., фэнтези, романтика, драма, BDRip] [720p]

Ответить на тему
 

Alex_38 ®

Стаж: 5 лет 7 месяцев

Сообщений: 336

Симпатии: 37


TV REPRODUCTION
- Год выпуска: 2010
Страна: Япония
Жанр: фэнтези, романтика, драма
Продолжительность: 2 эп. по 60 мин.-Перевод:
  • русские субтитры от Cloud
    (Корректировка под ОВУ by Aglenn)
-Режиссер: Ямагути Юдзи
Студия: Studio DEEN-Описание:
После смерти приемного отца юный Сиро Эмия жил-поживал в одиночестве в огромном поместье. Вырос 16-летний парень добрым, работящим и хозяйственным, потому был окружен заботой и вниманием сразу двух девушек – младшей школьной подруги Сакуры Мато и учительницы Тайги Фудзимуры, формально – опекуна, на деле – скорее старшей сестры. Все рухнуло, когда Сиро узнал, что родной город Фуюки – арена магической битвы за Святой Грааль, которая повторяется раз в несколько поколений. Вот только мир ускоряется, в итоге с последней войны прошло всего 10 лет – и уже пришла пора новой.
Согласно древним законам, «королевскую битву» ведут семь Мастеров-магов, каждый из которых вызывает Слугу – одного из вечных героев ушедших или будущих эпох. Последний оставшийся Мастер получает Грааль – величайшее сокровище, которое выполняет любое желание. Правил нет, цель оправдывает средства, вчерашний друг может оказаться соперником и без раздумий предать, ударить в спину. Узнав правду, Сиро становится перед тяжким выбором – уйти, отказаться от борьбы или рискнуть и поставить на карту все - невеликий (так он думает) магический дар, горячее сердце, отчаянное желание спасти всех, кто ему дорог. Но последней каплей на чаше весов чести и мужества станут зеленые глаза из далекого прошлого, засиявшие той самой ночью…
© Hollow, World Art
Дополнительная информация:
Это краткое изложение событий ТВ сериала 2005-ого года в 2 полнометражных фильмах.
Не ремейк, а просто компиляция эпизодов. Из нового только опеннинг.
Если не смотрели сериал и не играли в ВН, то смотреть ову нет смысла - вы вряд ли что-то поймете, так как все события донельзя сжаты по времени.-Информационные ссылки: AniDB || World Art || MAL
-

Список Эпизодов

01. Fate stay night TV reproduction I
02. Fate stay night TV reproduction II
-Качество: BDRip
Энкод: QTS
Тип видео: без хардсаба
Формат: mp4
Видео: x264, 1280x720, 1056 / 1276 Kbps, 23.976 fps (8 bit)
Аудио: AAC, 48000Hz, 127Kbps, 2ch
-

Подробные тех. данные

Fate stay night TV reproduction I

General
Complete name                            : D:\Релизы\Собственные\Релизы\Fate stay night TV reproduction [BD] [720p]\Fate stay night TV reproduction I (BD H264 1280x720 24fps AAC).mp4
Format                                   : MPEG-4
Format profile                           : Base Media
Codec ID                                 : isom
File size                                : 515 MiB
Duration                                 : 1h 0mn
Overall bit rate mode                    : Variable
Overall bit rate                         : 1 186 Kbps
Encoded date                             : UTC 2010-01-22 12:38:13
Tagged date                              : UTC 2010-01-22 12:38:13
Writing application                      : Yamb 2.1.0.0 [http://yamb.unite-video.com]
Video
ID                                       : 1
Format                                   : AVC
Format/Info                              : Advanced Video Codec
Format profile                           : [email protected]
Format settings, CABAC                   : Yes
Format settings, ReFrames                : 4 frames
Codec ID                                 : avc1
Codec ID/Info                            : Advanced Video Coding
Duration                                 : 1h 0mn
Bit rate                                 : 1 056 Kbps
Maximum bit rate                         : 5 219 Kbps
Width                                    : 1 280 pixels
Height                                   : 720 pixels
Display aspect ratio                     : 16:9
Frame rate mode                          : Constant
Frame rate                               : 23.976 fps
Color space                              : YUV
Chroma subsampling                       : 4:2:0
Bit depth                                : 8 bits
Scan type                                : Progressive
Bits/(Pixel*Frame)                       : 0.048
Stream size                              : 459 MiB (89%)
Title                                    : [QTS] Fate stay night TV reproduction I
Writing library                          : x264 core 84 r1400kGIT 20fa784
Encoding settings                        : cabac=1 / ref=4 / deblock=1:-1:-1 / analyse=0x3:0x133 / me=umh / subme=9 / psy=1 / psy_rd=1.0:0.0 / mixed_ref=1 / me_range=18 / chroma_me=1 / trellis=2 / 8x8dct=1 / cqm=0 / deadzone=21,11 / fast_pskip=0 / chroma_qp_offset=-2 / threads=6 / sliced_threads=0 / nr=0 / decimate=1 / mbaff=0 / constrained_intra=0 / bframes=3 / b_pyramid=2 / b_adapt=2 / b_bias=0 / direct=2 / wpredb=1 / wpredp=2 / keyint=240 / keyint_min=24 / scenecut=76 / intra_refresh=0 / rc=crf / mbtree=0 / crf=22.0 / qcomp=0.60 / qpmin=10 / qpmax=51 / qpstep=4 / ip_ratio=1.40 / pb_ratio=1.30 / aq=2:1.00 / pulldown=0 / nal_hrd=0
Language                                 : Japanese
Encoded date                             : UTC 2010-01-22 12:38:13
Tagged date                              : UTC 2010-01-22 12:38:51
Audio
ID                                       : 2
Format                                   : AAC
Format/Info                              : Advanced Audio Codec
Format profile                           : LC
Codec ID                                 : 40
Duration                                 : 1h 0mn
Bit rate mode                            : Variable
Bit rate                                 : 127 Kbps
Maximum bit rate                         : 156 Kbps
Channel count                            : 2 channels
Channel positions                        : Front: L R
Sampling rate                            : 48.0 KHz
Compression mode                         : Lossy
Stream size                              : 55.1 MiB (11%)
Title                                    : Japanese Audio 2.0ch
Language                                 : Japanese
Encoded date                             : UTC 2010-01-22 12:38:46
Tagged date                              : UTC 2010-01-22 12:38:51

Fate stay night TV reproduction II

General
Complete name                            : D:\Релизы\Собственные\Релизы\Fate stay night TV reproduction [BD] [720p]\Fate stay night TV reproduction II (BD H264 1280x720 24fps AAC).mp4
Format                                   : MPEG-4
Format profile                           : Base Media
Codec ID                                 : isom
File size                                : 600 MiB
Duration                                 : 59mn 31s
Overall bit rate mode                    : Variable
Overall bit rate                         : 1 408 Kbps
Encoded date                             : UTC 2010-01-22 12:55:59
Tagged date                              : UTC 2010-01-22 12:55:59
Writing application                      : Yamb 2.1.0.0 [http://yamb.unite-video.com]
Video
ID                                       : 1
Format                                   : AVC
Format/Info                              : Advanced Video Codec
Format profile                           : [email protected]
Format settings, CABAC                   : Yes
Format settings, ReFrames                : 4 frames
Codec ID                                 : avc1
Codec ID/Info                            : Advanced Video Coding
Duration                                 : 59mn 31s
Bit rate                                 : 1 276 Kbps
Maximum bit rate                         : 11.5 Mbps
Width                                    : 1 280 pixels
Height                                   : 720 pixels
Display aspect ratio                     : 16:9
Frame rate mode                          : Constant
Frame rate                               : 23.976 fps
Color space                              : YUV
Chroma subsampling                       : 4:2:0
Bit depth                                : 8 bits
Scan type                                : Progressive
Bits/(Pixel*Frame)                       : 0.058
Stream size                              : 543 MiB (91%)
Title                                    : [QTS] Fate stay night TV reproduction II
Writing library                          : x264 core 84 r1400kGIT 20fa784
Encoding settings                        : cabac=1 / ref=4 / deblock=1:-1:-1 / analyse=0x3:0x133 / me=umh / subme=9 / psy=1 / psy_rd=1.0:0.0 / mixed_ref=1 / me_range=18 / chroma_me=1 / trellis=2 / 8x8dct=1 / cqm=0 / deadzone=21,11 / fast_pskip=0 / chroma_qp_offset=-2 / threads=6 / sliced_threads=0 / nr=0 / decimate=1 / mbaff=0 / constrained_intra=0 / bframes=3 / b_pyramid=2 / b_adapt=2 / b_bias=0 / direct=2 / wpredb=1 / wpredp=2 / keyint=240 / keyint_min=24 / scenecut=76 / intra_refresh=0 / rc=crf / mbtree=0 / crf=22.0 / qcomp=0.60 / qpmin=10 / qpmax=51 / qpstep=4 / ip_ratio=1.40 / pb_ratio=1.30 / aq=2:1.00 / pulldown=0 / nal_hrd=0
Language                                 : Japanese
Encoded date                             : UTC 2010-01-22 12:55:59
Tagged date                              : UTC 2010-01-22 12:56:34
Audio
ID                                       : 2
Format                                   : AAC
Format/Info                              : Advanced Audio Codec
Format profile                           : LC
Codec ID                                 : 40
Duration                                 : 59mn 31s
Bit rate mode                            : Variable
Bit rate                                 : 128 Kbps
Maximum bit rate                         : 156 Kbps
Channel count                            : 2 channels
Channel positions                        : Front: L R
Sampling rate                            : 48.0 KHz
Compression mode                         : Lossy
Stream size                              : 54.5 MiB (9%)
Title                                    : Japanese Audio 2.0ch
Language                                 : Japanese
Encoded date                             : UTC 2010-01-22 12:56:31
Tagged date                              : UTC 2010-01-22 12:56:34
-- -

Создавать темы 23-Мар-2014 13:03

[Профиль]  [ЛС] 

kish.zk

Стаж: 4 года

Сообщений: 11

Скорости плз!!!!

Создавать темы 07-Июн-2014 11:05

[Профиль]  [ЛС] 
Показать сообщения:    
Ответить на тему

Текущее время: 23-Окт 12:47

Часовой пояс: UTC + 5



Вы не можете начинать темы
Вы не можете отвечать на сообщения
Вы не можете редактировать свои сообщения
Вы не можете удалять свои сообщения
Вы не можете голосовать в опросах
Вы не можете прикреплять файлы к сообщениям
Вы не можете скачивать файлы