Забойный реванш / Grudge Match (Питер Сигал / Peter Segal) (2013 г., комедия, спорт, HDRip) [Чистый звук]

Тема закрыта
 

Suxrob89 ®

Стаж: 7 лет 1 месяц

Сообщений: 933

Симпатии: 564

-Забойный реванш / Grudge Match-«Когда возраст не имеет значения»- ✦Производство: США , Callahan Filmworks, Gerber Pictures, RatPac-Dune Entertainment
✦Год выпуска: 2013 г.
✦Жанр: комедия, спорт
✦Продолжительность: 01:53:17
✦Перевод: Профессиональный (полное дублирование) [Чистый звук]
✦Субтитры: отсутствуют-✦Режиссер: Питер Сигал / Peter Segal-✦В ролях: Роберт Де Ниро, Сильвестр Сталлоне, Алан Аркин, Ким Бейсингер, Кевин Харт, Джон Бернтал, Кемден Грэй, Пол Бен-Виктор, ЭлЭл Кул Джей, Энтони Андерсон-✦Описание:
Фильм расскажет о двух бывших боксерах, решающих вернуться на ринг ради финального матча, который должен будет уладить все их разногласия.- -✦Дата мировой премьеры: 16 декабря 2013
✦Дата российской премьеры: 16 января 2014, «Каро-Премьер»
✦Дата выхода DVD релиза: 30 апреля 2014, «CP Дистрибуция»
✦Дата выхода на Blu-Ray: 15 мая 2014,«CP Дистрибуция»-✦Качество: HDRip
✦Контейнер: AVI
✦Видео: XviD build 50, 720x400 (1.80:1), 1532 kbps avg, 23.976 fps, 0.22 bit/pixel
✦Аудио: AC3 Dolby Digital, 192 kbps, 2/0 (L,R) ch, 48 kHz

Media info

E:\Grudge.Match.2013.HDRip.1400Mb.avi
   General
      Complete name : E:\Grudge.Match.2013.HDRip.1400Mb.avi
      Format : AVI
      Format/Info : Audio Video Interleave
      File size : 1.37 GiB
      Duration : 1h 53mn
      Overall bit rate : 1 734 Kbps
      Writing application : VirtualDubMod 1.5.10.2 (build 2540/release)
      Writing library : VirtualDubMod build 2540/release
   Video #0
      ID : 0
      Format : MPEG-4 Visual
      Format profile : Advanced [email protected]
      Format settings, BVOP : 2
      Format settings, QPel : No
      Format settings, GMC : No warppoints
      Format settings, Matrix : Custom
      Codec ID : XVID
      Codec ID/Hint : XviD
      Duration : 1h 53mn
      Bit rate : 1 532 Kbps
      Width : 720 pixels
      Height : 400 pixels
      Display aspect ratio : 16:9
      Frame rate : 23.976 fps
      Color space : YUV
      Chroma subsampling : 4:2:0
      Bit depth : 8 bits
      Scan type : Progressive
      Compression mode : Lossy
      Bits/(Pixel*Frame) : 0.222
      Stream size : 1.21 GiB (88%)
      Writing library : XviD 1.2.1 (UTC 2008-12-04)
   Audio #1
      ID : 1
      Format : AC-3
      Format/Info : Audio Coding 3
      Mode extension : CM (complete main)
      Format settings, Endianness : Big
      Codec ID : 2000
      Duration : 1h 53mn
      Bit rate mode : Constant
      Bit rate : 192 Kbps
      Channel(s) : 2 channels
      Channel positions : Front: L R
      Sampling rate : 48.0 KHz
      Bit depth : 16 bits
      Compression mode : Lossy
      Stream size : 156 MiB (11%)
      Alignment : Split accross interleaves
      Interleave, duration : 42 ms (1.00 video frame)
      Interleave, preload duration : 500 ms

Скриншоты

Создавать темы 24-Мар-2014 07:30

[Профиль]  [ЛС] 

2BubbLe

Стаж: 3 года 9 месяцев

Сообщений: 167

Симпатии: 12

https://tas-ix.net/viewtopic.php?t=88824

Создавать темы 24-Мар-2014 07:48

[Профиль]  [ЛС] 

abilaykhan12

Стаж: 5 лет

Сообщений: 116

Симпатии: 2

звук хреновато чё то

Создавать темы 25-Мар-2014 22:00

[Профиль]  [ЛС] 

ziyod

Стаж: 7 лет 6 месяцев

Сообщений: 367

Симпатии: 60

https://tas-ix.net/viewtopic.php?t=91440

Создавать темы 26-Мар-2014 15:58

[Профиль]  [ЛС] 
Показать сообщения:    
Тема закрыта

Текущее время: 20-Сен 10:46

Часовой пояс: UTC + 5



Вы не можете начинать темы
Вы не можете отвечать на сообщения
Вы не можете редактировать свои сообщения
Вы не можете удалять свои сообщения
Вы не можете голосовать в опросах
Вы не можете прикреплять файлы к сообщениям
Вы не можете скачивать файлы