Подозрительные лица / The Usual Suspects (Брайен Сингер) [1995 г., Детектив, Криминал, Триллер, BDRip]

Ответить на тему
 

Panky ®

Стаж: 4 года 11 месяцев

Сообщений: 46

Симпатии: 1

Подозрительные лица / The Usual Suspects
Год выпуска: 1995
Страна: США, Германия
Жанр: Детектив, Криминал, Триллер
Продолжительность: 01:46:04
Перевод: Авторский (одноголосый)
Режиссер: Брайен Сингер
В ролях: Бенисио Дель Торо, Гэбриел Бирн, Джанкарло Эспозито, Дэн Хедайя, Кевин Поллак, Кевин Спейси, Пит Постлетуэйт, Чазз Пальминтери, Стивен Болдуин, Сьюзи Эймис
Описание: Обычно, если есть преступление, есть мотив. Обычно, если проводится опознание, по крайней мере есть один подозреваемый. Но это не было обычным преступлением… Пятеро преступников столкнулись в одном необычном месте и решили прокрутить одно дельце. Но кто-то более сильный и могущественный, кто-то, чье имя пугает всех преступников мира, хочет, чтобы они поработали на него… Это не было обычным преступлением, и они — не просто подозрительные лица…
Доп. информация: Бюджет: $6 000 000
Рейтинг КиноПоиск.Ru: 8.057 (33704)
Рейтинг IMDb: 8.7 (522858)
Качество: BDRip - AVC
Формат: MKV
Видео кодек: AVC
Аудио кодек: DTS
Видео: MPEG4 Video, 1280x544, 23.976fps, 4 390 Kbps
Аудио: 48KHz, 6ch, 1 510 Kbps

Media info

Format : Matroska
Format version : Version 1
File size : 4.37 GiB
Duration : 1h 46mn
Overall bit rate : 5 904 Kbps
Encoded date : UTC 2007-05-09 04:17:31
Writing application : mkvmerge v1.8.1 ('Little By Little') built on Nov 25 2006 16:14:30
Writing library : libebml v0.7.7 + libmatroska v0.8.0
Video
ID : 1
Format : AVC
Format/Info : Advanced Video Codec
Format profile : [email protected]
Format settings, CABAC : Yes
Format settings, ReFrames : 11 frames
Codec ID : V_MPEG4/ISO/AVC
Duration : 1h 46mn
Bit rate : 4 390 Kbps
Width : 1 280 pixels
Height : 544 pixels
Display aspect ratio : 2.35:1
Frame rate mode : Constant
Frame rate : 23.976 fps
Color space : YUV
Chroma subsampling : 4:2:0
Bit depth : 8 bits
Scan type : Progressive
Bits/(Pixel*Frame) : 0.263
Stream size : 3.17 GiB (72%)
Title : The Usual Suspects
Writing library : x264 core 54 svn-635M
Encoding settings : cabac=1 / ref=8 / deblock=1:-3:-2 / analyse=0x3:0x133 / me=hex / subme=7 / brdo=1 / mixed_ref=1 / me_range=16 / chroma_me=1 / trellis=1 / 8x8dct=1 / cqm=2 / deadzone=21,11 / chroma_qp_offset=0 / threads=2 / nr=0 / decimate=0 / mbaff=0 / bframes=3 / b_pyramid=1 / b_adapt=1 / b_bias=0 / direct=1 / wpredb=1 / bime=1 / keyint=240 / keyint_min=24 / scenecut=40(pre) / rc=2pass / bitrate=4390 / ratetol=1.0 / rceq='blurCplx^(1-qComp)' / qcomp=0.60 / qpmin=10 / qpmax=51 / qpstep=4 / cplxblur=20.0 / qblur=0.5 / ip_ratio=1.40 / pb_ratio=1.30 / zones
Language : English
Default : Yes
Forced : No
Audio
ID : 2
Format : DTS
Format/Info : Digital Theater Systems
Mode : 16
Format settings, Endianness : Big
Codec ID : A_DTS
Duration : 1h 46mn
Bit rate mode : Constant
Bit rate : 1 510 Kbps
Channel(s) : 6 channels
Channel positions : Front: L C R, Side: L R, LFE
Sampling rate : 48.0 KHz
Bit depth : 24 bits
Compression mode : Lossy
Stream size : 1.12 GiB (26%)
Default : Yes
Forced : No

Скриншоты



Последний раз редактировалось: Panky (2014-03-26 09:05), всего редактировалось 4 раз(а)

Создавать темы 24-Мар-2014 19:53

[Профиль]  [ЛС] 

Panky ®

Стаж: 4 года 11 месяцев

Сообщений: 46

Симпатии: 1

исправил

Создавать темы 25-Мар-2014 08:10

[Профиль]  [ЛС] 

Panky ®

Стаж: 4 года 11 месяцев

Сообщений: 46

Симпатии: 1

чего вы так проверяйте?

Создавать темы 25-Мар-2014 16:21

[Профиль]  [ЛС] 

Grock

Стаж: 6 лет 8 месяцев

Сообщений: 637

Симпатии: 113

Panky, Допишите видео и аудио данные, а именно:
Для видео - "частоту кадров в секунду (fps)"
Для аудио - "значение аудиобитрейта (kbps), количество аудиоканалов (ch) для каждой из дорожек"
Также укажите продолжительность в формате чч:мм:сс и выложите Медиа Инфо пож-ста

Создавать темы 26-Мар-2014 00:14

[Профиль]  [ЛС] 

Panky ®

Стаж: 4 года 11 месяцев

Сообщений: 46

Симпатии: 1

если скачаете из турон телеком поставьте птичку на поиск локальных пиров в настройках торрент клиента на вкладке битторрент

Создавать темы 29-Мар-2014 17:47

[Профиль]  [ЛС] 

Panky ®

Стаж: 4 года 11 месяцев

Сообщений: 46

Симпатии: 1

приятель в твоем айпи фильтре нету моего айпи хватить позвать лучше обнови фильтр у меня раздача 600 кб/с но ты меня не видишь

Создавать темы 31-Мар-2014 16:17

[Профиль]  [ЛС] 
Показать сообщения:    
Ответить на тему

Текущее время: 21-Окт 15:24

Часовой пояс: UTC + 5



Вы не можете начинать темы
Вы не можете отвечать на сообщения
Вы не можете редактировать свои сообщения
Вы не можете удалять свои сообщения
Вы не можете голосовать в опросах
Вы не можете прикреплять файлы к сообщениям
Вы не можете скачивать файлы