Ну не может моя сестра быть такой милой! (ТВ-2) / Ore no Imouto ga Konna ni Kawaii Wake ga Nai. (Камбэ Хироюки) [TV+Special] [13+3 из 13+3] [без хардсаба] [RUS(ext), JAP+SUB] [2013 г., комедия, BDRip] [720p]

Ответить на тему
 

MeiDoCorpse ®

Стаж: 4 года 7 месяцев

Сообщений: 222

Симпатии: 14

Год выпуска: 2013
Страна: Япония
Жанр: комедия
Продолжительность: ТВ | 13 эп. по 24 мин.-Режиссер: Камбэ Хироюки
Автор оригинала: Фусими Цукаса
Студия: A-1 Pictures Inc.-Описание:
Простой с виду парень Кёсукэ Косака совершил невозможное – за рекордный срок расширил горизонты сознания, погрузившись в тайный и пугающий мир отаку, в котором, как выяснилось, живет младшая сестра Кирино. Познав тайну совмещения двух миров, герой нашего времени смог вернуть сестренку домой из заокеанского изгнания и помочь ее подругам, после чего надеялся, что все будет хорошо, и его усилия получат достойную оценку. Вот только сладкие иллюзии длились недолго: проснувшись однажды после крепкой оплеухи Кирино, наивный старший брат окончательно понял – все вернулось на круги своя!
А чего еще ожидать? Любые подвиги, посвященные себе, любимым, женщины воспринимают как должное и ждут их повторения на регулярной основе. Проблемы красавицы Кирино, малышки Куронэко, «принцессы» Саори, модели Аясэ никуда не делись, они засели глубоко в душе, но теперь девчонки точно знают, кто обязан найти решение! Куда же податься бедному Кёсукэ, от которого ждут слишком многого? Где черпать вдохновение и искать ответы на неразрешимые загадки? Убегать бесполезно, надо смело бросаться туда, где все началось – в мир аниме и манги, эрогэ и косплея, додзинси и конвентов. Мы-то с вами знаем – именно там сокрыты мудрость Вселенной и дорога к «истинному финалу»!
© Hollow, World Art
-Cсылки: Официальная страница || AniDB || World Art || MAL-Качество: BDRip
Энкод: Winter
Контейнер: mkv
Тип видео: Без хардсаба
Наличие линковки: Нет
Видео: x264 (Hi10p), 1280x720, ~2200 Kbps, 23.976 fps
Аудио: Japanese, Vorbis, 48000Hz, ~256 Kbps, 2ch, в составе контейнера
Аудио: Russian, AC3, 48000Hz, ~192 Kbps, 2ch, внешними файлами
  • Двухголосая озвучка от Zendos & Eladiel
Субтитры: Russian, ASS, внешними файлами
  • Перевод от Eternal HARO & GMC & Shift & Ambiente [TV 1-8, SP 1]
  • Перевод от Stan WarHammer & Nesitach [TV 9-13, SP 2-3]
-

Список эпизодов

01. My Little Sister Can`t Come Back Home Again
02. The Onii-san I Trusted and Sent Off Can`t Get This Addicted to a Mobile Dating Sim and Commit Sexual Harassment
03. My Friend Can`t Take Off Her Glasses
04. My Little Sister`s Rival Can`t Come to Japan
05. I Can`t Be My Little Sister`s Boyfriend and My Little Sister Can`t Have a Boyfriend
06. There`s No Way My Sister Would Bring Her Boyfriend Home!
07. I Can`t Become a Couple with My Underclassman
08. I Can`t Create a Summer Memory with My Underclassman
09. My Little Sister Can`t Be This Cute!
10. My Little Sister Can`t Wear a Wedding Dress
11. Little Sisters Can`t Barge in on Their Brother Who Lives Alone
12. Total Angel Ayase-tan Can`t Descend Upon My Place While I Live Alone
13. Little Sisters Can`t Fall in Love with Their Older Brothers!
S1. I Can`t Confess to Her
S2. My Little Sister Is This Cute
S3. My Little Sister Can`t Be This Cute.

Скриншоты

Подробные тех. данные

General
Unique ID : 206226443746752171017749081792274780156 (0x9B25C4B1835EF6EA96FC389B6AC44FFC)
Complete name : ***\Ore no Imouto TV-2 [BD] [720p]\[Winter] Ore no Imouto TV-2 01 [BDrip 1280x720 x264 Vorbis].mkv
Format : Matroska
Format version : Version 2
File size : 471 MiB
Duration : 25mn 12s
Overall bit rate mode : Variable
Overall bit rate : 2 612 Kbps
Encoded date : UTC 2013-06-25 13:45:28
Writing application : mkvmerge v2.9.8 ('C'est le bon') built on Aug 13 2009 12:49:06
Writing library : libebml v0.7.7 + libmatroska v0.8.1
Video
ID : 1
Format : AVC
Format/Info : Advanced Video Codec
Format profile : High [email protected]
Format settings, CABAC : Yes
Format settings, ReFrames : 9 frames
Codec ID : V_MPEG4/ISO/AVC
Duration : 25mn 12s
Bit rate : 2 304 Kbps
Width : 1 280 pixels
Height : 720 pixels
Display aspect ratio : 16:9
Frame rate mode : Constant
Frame rate : 23.976 fps
Color space : YUV
Chroma subsampling : 4:2:0
Bit depth : 10 bits
Scan type : Progressive
Bits/(Pixel*Frame) : 0.104
Stream size : 415 MiB (88%)
Writing library : x264 core 132 r2309 3b1f1f7
Encoding settings : cabac=1 / ref=9 / deblock=1:-2:-2 / analyse=0x3:0x133 / me=umh / subme=9 / psy=1 / psy_rd=0.90:0.00 / mixed_ref=1 / me_range=24 / chroma_me=1 / trellis=2 / 8x8dct=1 / cqm=0 / deadzone=21,11 / fast_pskip=1 / chroma_qp_offset=-2 / threads=6 / lookahead_threads=1 / sliced_threads=0 / nr=0 / decimate=0 / interlaced=0 / bluray_compat=0 / constrained_intra=0 / bframes=8 / b_pyramid=2 / b_adapt=2 / b_bias=0 / direct=1 / weightb=1 / open_gop=0 / weightp=2 / keyint=250 / keyint_min=23 / scenecut=40 / intra_refresh=0 / rc=crf / mbtree=0 / crf=15.6 / qcomp=0.70 / qpmin=9 / qpmax=40 / qpstep=4 / ip_ratio=1.40 / pb_ratio=1.30 / aq=1:0.90
Default : No
Forced : No
Audio
ID : 2
Format : Vorbis
Format settings, Floor : 1
Codec ID : A_VORBIS
Duration : 25mn 12s
Bit rate mode : Variable
Bit rate : 256 Kbps
Channel count : 2 channels
Sampling rate : 48.0 KHz
Compression mode : Lossy
Stream size : 46.1 MiB (10%)
Writing library : libVorbis (Schaufenugget) (20101101 (Schaufenugget))
Language : Japanese
Default : Yes
Forced : No

Создавать темы 24-Мар-2014 21:20

[Профиль]  [ЛС] 

LikeSmile

Стаж: 4 года 7 месяцев

Сообщений: 298

Симпатии: 48

Оттаймил первую серию от Stan WarHammer & Nesitach
Ссыль
Могу остальные тож оттаймить

Создавать темы 24-Мар-2014 22:01

[Профиль]  [ЛС] 

bl4ckSun

Стаж: 4 года 2 месяца

Сообщений: 48

Симпатии: 1

яхуу стяну )))

Создавать темы 25-Мар-2014 05:57

[Профиль]  [ЛС] 

bl4ckSun

Стаж: 4 года 2 месяца

Сообщений: 48

Симпатии: 1

мне б сводную сестру как кирино тян ;D

Создавать темы 25-Мар-2014 07:10

[Профиль]  [ЛС] 

SNIL

Стаж: 5 лет 11 месяцев

Сообщений: 2624

Симпатии: 341

bl4ckSun, долгоб ты не жил) с такой только вешатся

Создавать темы 25-Мар-2014 17:47

[Профиль]  [ЛС] 
Показать сообщения:    
Ответить на тему

Текущее время: 14-Дек 07:42

Часовой пояс: UTC + 5



Вы не можете начинать темы
Вы не можете отвечать на сообщения
Вы не можете редактировать свои сообщения
Вы не можете удалять свои сообщения
Вы не можете голосовать в опросах
Вы не можете прикреплять файлы к сообщениям
Вы не можете скачивать файлы