Демоны да Винчи / Da Vinci's Demons / Сезон 2 / Серии 1-10 (10) [2014, драма, приключения, HDTVRip] MVO (AlexFilm)

Страницы :  1, 2, 3, 4  След.

Ответить на тему
 

emilsky ®

Стаж: 7 лет 5 месяцев

Сообщений: 2237

Симпатии: 610

--Демоны да Винчи / Da Vinci's Demons
2 сезон, 1-10серии
-- Год выпуска: 2014
Страна: США
Жанр: драма, приключения
Продолжительность: 9 х ~58 мин
Перевод: профессиональный многоголосый закадровый (AlexFilm)
Субтитры: нет-Создатель: Дэвид С. Гойер
Режиссеры: Дэвид С. Гойер, Джейми Пэйн, Пол Уилмсхёрст, Майкл Дж. Бассетт
В ролях: Том Райли, Лаура Хэддок, Блейк Ритсон, Эллиот Кауэн, Лара Пулвер, Грегг Чиллин, Гера Хилмар, Эрос Влахос, Джеймс Фолкнер, Том Бейтман, Александр Сиддиг, Пол Вествуд, Джан Эрик Мэдсен, Джеймс Бриэн-Описание: В мире, где мысль и вера находятся под контролем, один человек борется за то, чтобы сделать знания доступными для всех.
Не рассказанная история трагичной жизни Леонардо да Винчи раскрывает портрет молодого человека, которого мучает дар гения. Он - еретик, жаждущий раскрыть ложь религии. Бунтарь, стремящийся низвергнуть элитарное общество. Незаконнорожденный сын, требующий от своего отца признания его прав.
Он оказывается посреди разразившегося урагана страстей, который спал веками. Внутри конфликта между правдой и ложью, религией и интеллектом, прошлым и будущим. Его стремления используются против него противоборствующими силами того времени, вовлекая его в соблазнительную игру, в которой те, кто презирает его ум, нуждаются в нём больше всего.
Леонардо должен вступить в конфронтацию с теми, кто использует историю, чтобы скрыть истину. Вооружённый лишь собственным гением да Винчи в одиночку противостоит тьме как внутри, так и снаружи.
Перед лицом неопределённости будущего его поход за знаниями едва не становится для него погибелью, когда он переходит за грань своего здравомыслия. Да Винчи, словно в омут с головой, уходит в собственные гениальные идеи, воплотив которые, становится необоримой силой, вытаскивающей из темноты и поворачивающей к свету целую эпоху.
Его история становится зеркалом для нашего мира, зовущее всех нас на бой за свободное будущее.-Релиз:
Перевод: Doctor Joker и MartinaG
Монтаж и сведение звука: Михаил Шорыгин
Роли озвучивали:
Евгения Тихонова
Михаил Суслов
Владимир Курдов
Константин Погодаев
Александр Дасевич
- -Качество: HDTVRip
Формат: AVI
Видео кодек: XviD
Аудио кодек: MP3
Видео: 720x400 (1.80:1), 23.976 fps, XviD ~1320 kbps avg, 0.19 bit/pixel
Аудио Rus: 48 kHz, MPEG Layer 3, 2 ch, ~128.00 kbps avg
Аудио Eng: 48 kHz, MPEG Layer 3, 2 ch, ~128.00 kbps avg-

График выхода новых серий

2 - 1 The Blood of Man
2 - 2 The Blood of Brothers
2 - 3 The Voyage of the Damned
2 - 4 The Ends of the Earth
2 - 5 The Sun and the Moon
2 - 6 The Rope of the Dead
2 - 7 The Vault of Heaven
2 - 8 The Fall From Heaven
2 - 9 The Enemies of Man
2 - 10 The Sins of Daedalus

Скриншоты

МедиаИнфо

Format : AVI
Format/Info : Audio Video Interleave
File size : 650 MiB
Duration : 57mn 17s
Overall bit rate : 1 587 Kbps
Movie name : Da Vinci's Demons 2x01 The Blood of Man @ AlexFilm
Writing application : VirtualDubMod 1.5.10.2 (build 2542/release)
Video
ID : 0
Format : MPEG-4 Visual
Format profile : Advanced [email protected]
Format settings, BVOP : 1
Format settings, QPel : No
Format settings, GMC : No warppoints
Format settings, Matrix : Default (MPEG)
Codec ID : XVID
Codec ID/Hint : XviD
Duration : 57mn 17s
Bit rate : 1 317 Kbps
Width : 720 pixels
Height : 400 pixels
Display aspect ratio : 16:9
Frame rate : 23.976 fps
Color space : YUV
Chroma subsampling : 4:2:0
Bit depth : 8 bits
Scan type : Progressive
Compression mode : Lossy
Bits/(Pixel*Frame) : 0.191
Stream size : 540 MiB (83%)
Writing library : XviD 1.2.1 (UTC 2008-12-04)
Audio #1
ID : 1
Format : MPEG Audio
Format version : Version 1
Format profile : Layer 3
Mode : Joint stereo
Mode extension : MS Stereo
Codec ID : 55
Codec ID/Hint : MP3
Duration : 57mn 17s
Bit rate mode : Constant
Bit rate : 128 Kbps
Channel(s) : 2 channels
Sampling rate : 48.0 KHz
Compression mode : Lossy
Stream size : 52.5 MiB (8%)
Alignment : Aligned on interleaves
Interleave, duration : 42 ms (1.00 video frame)
Interleave, preload duration : 504 ms
Title : Russian (AlexFilm)
Audio #2
ID : 2
Format : MPEG Audio
Format version : Version 1
Format profile : Layer 3
Mode : Joint stereo
Codec ID : 55
Codec ID/Hint : MP3
Duration : 57mn 17s
Bit rate mode : Constant
Bit rate : 128 Kbps
Channel(s) : 2 channels
Sampling rate : 48.0 KHz
Compression mode : Lossy
Stream size : 52.5 MiB (8%)
Alignment : Aligned on interleaves
Interleave, duration : 42 ms (1.00 video frame)
Interleave, preload duration : 504 ms
Title : English


Последний раз редактировалось: emilsky (2014-06-05 23:35), всего редактировалось 16 раз(а)

Создавать темы 26-Мар-2014 03:27

[Профиль]  [ЛС] 

emilsky ®

Стаж: 7 лет 5 месяцев

Сообщений: 2237

Симпатии: 610

Очешуительное начало 2го сезона!

Создавать темы 26-Мар-2014 06:39

[Профиль]  [ЛС] 

Twista

Стаж: 5 лет 11 месяцев

Сообщений: 156

Симпатии: 15

802210Очешуительное начало 2го сезона!
Дождались ! спасибо за алексов bp
по трейлеру показалось что 2 сезон более захватывающий )

_________________
Подпись отключена за нарушение правил форума

Создавать темы 26-Мар-2014 08:26

[Профиль]  [ЛС] 

emilsky ®

Стаж: 7 лет 5 месяцев

Сообщений: 2237

Симпатии: 610

Twista, именно, три компа в раздачу!

Создавать темы 26-Мар-2014 08:36

[Профиль]  [ЛС] 

SNIL

Стаж: 5 лет 11 месяцев

Сообщений: 2624

Симпатии: 341

Круто! наконец дождались второго сезона

Создавать темы 26-Мар-2014 09:02

[Профиль]  [ЛС] 

boatswain

Стаж: 5 лет 1 месяц

Сообщений: 13

emilsky молодца!!!

Создавать темы 26-Мар-2014 09:20

[Профиль]  [ЛС] 

ОЛОЛОШ

Стаж: 5 лет 3 месяца

Сообщений: 141

Симпатии: 3

спс большое! наконец-то дождались

Создавать темы 26-Мар-2014 14:39

[Профиль]  [ЛС] 

PupuseG

Стаж: 5 лет 2 месяца

Сообщений: 514

Симпатии: 64

Поскокале!=) Спасибо!

Создавать темы 26-Мар-2014 16:07

[Профиль]  [ЛС] 

farik9193

Стаж: 5 лет 1 месяц

Сообщений: 501

Симпатии: 47

Пока не посмотрел этот сериал . Был уверен что Давинчи не Гей

Создавать темы 30-Мар-2014 12:02

[Профиль]  [ЛС] 

Артемий

Стаж: 5 лет 3 месяца

Сообщений: 96

Симпатии: 6

хм, откуда у Давинчи оказалась та самая книга по анатомии из фильма Лекарь - ученик авиценны...? pc

Создавать темы 30-Мар-2014 17:20

[Профиль]  [ЛС] 

farik9193

Стаж: 5 лет 1 месяц

Сообщений: 501

Симпатии: 47

804537хм, откуда у Давинчи оказалась та самая книга по анатомии из фильма Лекарь - ученик авиценны...? pc
Джон Коул дал .

Создавать темы 31-Мар-2014 00:58

[Профиль]  [ЛС] 

Артемий

Стаж: 5 лет 3 месяца

Сообщений: 96

Симпатии: 6

804768
804537хм, откуда у Давинчи оказалась та самая книга по анатомии из фильма Лекарь - ученик авиценны...? pc
Джон Коул дал .
Скорее всего, дали сценаристы с бурной фантазией. Видимо, Дракулы и Майа(ацтеков) им явно мало...

Создавать темы 31-Мар-2014 20:07

[Профиль]  [ЛС] 

emilsky ®

Стаж: 7 лет 5 месяцев

Сообщений: 2237

Симпатии: 610

2 серия!

Создавать темы 02-Апр-2014 05:48

[Профиль]  [ЛС] 

Хамидулла

Стаж: 5 лет 11 месяцев

Сообщений: 60

Симпатии: 1

спасибо

_________________
Подпись отключена за нарушение правил форума

Создавать темы 02-Апр-2014 06:29

[Профиль]  [ЛС] 

emilsky ®

Стаж: 7 лет 5 месяцев

Сообщений: 2237

Симпатии: 610

3 компа в раздачу!

Создавать темы 02-Апр-2014 09:28

[Профиль]  [ЛС] 
Показать сообщения:    
Ответить на тему

Текущее время: 18-Дек 16:00

Часовой пояс: UTC + 5



Вы не можете начинать темы
Вы не можете отвечать на сообщения
Вы не можете редактировать свои сообщения
Вы не можете удалять свои сообщения
Вы не можете голосовать в опросах
Вы не можете прикреплять файлы к сообщениям
Вы не можете скачивать файлы