Мои африканские приключения / Min søsters børn i Afrika (Мартин Миэ-Ренар) [2013, комедия, приключения, BDRip-AVC]

Ответить на тему
 

Каротажник ®

Стаж: 3 года 10 месяцев

Сообщений: 195

Симпатии: 211

Мои африканские приключения / Min søsters børn i Afrika

Год выпуска: 2013
Страна: Дания
Жанр: комедия, приключения-Продолжительность: 01:16:37
Перевод: Профессиональный (многоголосный) [НТВ+]-Режиссёр: Мартин Миэ-Ренар
В ролях: Петер Мюгинд, Mathilde HГёgh KГёlben, Sebastian Kronby, Лассе Гулдберг Кампер, Frida Luna Roswall Mattson, Rumle Riisom, Милле Динесен, Вики Брукер, Дитте Хансен, Роберт Хансен-
Искатели приключений дружная семья Берг отправляется в далёкую и загадочную Африку, чтоб помочь в спасении редких, исчезающих животных. На их пути много различных ситуаций, курьёзных и опасных. Но самые страшные там это браконьеры, которые не хотят, чтоб кто то мешад\л их жестокой наживе...- -
Качество: BDRip-AVC
Формат: MKV-Видео: MPEG4 Video (H264) 1024x556 24fps
Аудио: AC3 3072kbps Russian, AC3 6ch 9216kbps Danish

Media Info

Format : Matroska
Format version : Version 2
File size : 1.58 GiB
Duration : 1h 16mn
Overall bit rate mode : Variable
Overall bit rate : 2 956 Kbps
Writing application : Lavf51.12.1
Writing library : Lavf51.12.1
Video
ID : 1
Format : AVC
Format/Info : Advanced Video Codec
Format profile : [email protected]
Format settings, CABAC : No
Format settings, ReFrames : 1 frame
Format settings, GOP : M=1, N=12
Codec ID : V_MPEG4/ISO/AVC
Duration : 1h 16mn
Bit rate mode : Variable
Bit rate : 1 809 Kbps
Maximum bit rate : 2 790 Kbps
Width : 1 024 pixels
Height : 556 pixels
Display aspect ratio : 1.85:1
Frame rate mode : Constant
Frame rate : 24.000 fps
Color space : YUV
Chroma subsampling : 4:2:0
Bit depth : 8 bits
Scan type : Progressive
Bits/(Pixel*Frame) : 0.132
Stream size : 991 MiB (61%)
Language : Danish
Default : Yes
Forced : No
Audio #1
ID : 2
Format : AC-3
Format/Info : Audio Coding 3
Mode extension : CM (complete main)
Format settings, Endianness : Big
Codec ID : A_AC3
Duration : 1h 16mn
Bit rate mode : Constant
Bit rate : 192 Kbps
Channel(s) : 2 channels
Channel positions : Front: L R
Sampling rate : 48.0 KHz
Bit depth : 16 bits
Compression mode : Lossy
Stream size : 105 MiB (6%)
Language : Russian
Default : Yes
Forced : No
Audio #2
ID : 3
Format : AC-3
Format/Info : Audio Coding 3
Mode extension : CM (complete main)
Format settings, Endianness : Big
Codec ID : A_AC3
Duration : 1h 16mn
Bit rate mode : Constant
Bit rate : 448 Kbps
Channel(s) : 6 channels
Channel positions : Front: L C R, Side: L R, LFE
Sampling rate : 48.0 KHz
Bit depth : 16 bits
Compression mode : Lossy
Stream size : 246 MiB (15%)
Language : Danish
Default : Yes
Forced : No
Audio #3
ID : 4
Format : AC-3
Format/Info : Audio Coding 3
Mode extension : CM (complete main)
Format settings, Endianness : Big
Codec ID : A_AC3
Duration : 1h 16mn
Bit rate mode : Constant
Bit rate : 448 Kbps
Channel(s) : 6 channels
Channel positions : Front: L C R, Side: L R, LFE
Sampling rate : 48.0 KHz
Bit depth : 16 bits
Compression mode : Lossy
Stream size : 246 MiB (15%)
Language : Danish
Default : Yes
Forced : No

Скриншоты


Создавать темы 27-Мар-2014 04:49

[Профиль]  [ЛС] 

Evropa_uzb

Стаж: 5 лет 2 месяца

Сообщений: 98

Симпатии: 5

Спасибо Забираем !!!!

Создавать темы 27-Мар-2014 08:39

[Профиль]  [ЛС] 

Imperiya

Стаж: 6 лет 4 месяца

Сообщений: 275

Симпатии: 4

ого вчера посмотрел с канала кинохит. и уже здесь

Создавать темы 27-Мар-2014 09:26

[Профиль]  [ЛС] 

Топик был перенесен из форума Фильмы за 2013 в форум HD-AVC
Mixer City

Создавать темы 27-Мар-2014 10:52

 
Показать сообщения:    
Ответить на тему

Текущее время: 24-Авг 11:56

Часовой пояс: UTC + 5



Вы не можете начинать темы
Вы не можете отвечать на сообщения
Вы не можете редактировать свои сообщения
Вы не можете удалять свои сообщения
Вы не можете голосовать в опросах
Вы не можете прикреплять файлы к сообщениям
Вы не можете скачивать файлы