Сквозь снег / Snowpiercer (Пон Чжун Хо / Bong Joon Ho) [2013 г., фантастика, боевик, драма, HDRip]

Ответить на тему
 

Akmal89 ®

Стаж: 5 лет 5 месяцев

Сообщений: 237

Симпатии: 99

Сквозь снег / Snowpiercer «AD 2031: the passengers in the train are the only survivors on Earth» Информация о фильме:Год выпуска: 2013
Страна: Корея Южная, США, Франция, Чехия
Жанр: фантастика, боевик, драма
Продолжительность: 02:05:54
Перевод: Любительский (двухголосый) [DeadSno & den904]-Режиссер: Пон Чжун Хо / Bong Joon Ho- : Крис Эванс, Сон Кан Хо, Тильда Суинтон, Джейми Белл, Октавия Спенсер, Юэн Бремнер, Элисон Пилл, Ко А Сон, Эд Харрис Джон Хёрт- : Земля. Недалекое будущее. Семнадцать лет назад на планете произошла техногенная катастрофа. Там, где раньше росли леса и цвели сады, теперь лежат снег и лед. Жизнь сохранилась лишь в гигантском поезде, без остановки мчащемся по трансевразийской магистрали. В первых вагонах состава живет правящая элита, во множестве последних — простые люди. Жизнь в хвосте поезда напоминает концлагерь — болезни, нищета, беспредел надсмотрщиков. Но именно здесь из среды униженных и оскорбленных восстает человек, способный восстановить справедливость. Однако у каждой благородной идеи есть своя темная сторона, и любая революция пожирает своих детей...-Рейтинг:-   -Файл:
Качество: HDRip
Формат: AVI
Видео кодек: XviD
Аудио кодек: AC3
Видео: XviD, 720x384, ~1872 Kbit/s, 24.000 fps
Аудио: АС3, 6 ch, 448 kbit/s, 48.0 KHz
--

Media Info

D:\Torrents Downloads\Ok\Skvosi.sneg.2013.L2.HDRip..tas-ix.net.2100MB.avi
General
Complete name : D:\Torrents Downloads\Ok\Skvosi.sneg.2013.L2.HDRip..tas-ix.net.2100MB.avi
Format : AVI
Format/Info : Audio Video Interleave
Format profile : OpenDML
File size : 2.05 GiB
Duration : 2h 5mn
Overall bit rate : 2 332 Kbps
Writing application : VirtualDubMod 1.5.10.3 | www.virtualdub-fr.org || (build 2550/release)
Writing library : VirtualDubMod build 2550/release
Video #0
ID : 0
Format : MPEG-4 Visual
Format profile : Advanced [email protected]
Format settings, BVOP : No
Format settings, QPel : No
Format settings, GMC : No warppoints
Format settings, Matrix : Default (H.263)
Codec ID : XVID
Codec ID/Hint : XviD
Duration : 2h 5mn
Bit rate : 1 872 Kbps
Width : 720 pixels
Height : 384 pixels
Display aspect ratio : 1.875
Frame rate : 23.976 fps
Color space : YUV
Chroma subsampling : 4:2:0
Bit depth : 8 bits
Scan type : Progressive
Compression mode : Lossy
Bits/(Pixel*Frame) : 0.282
Stream size : 1.65 GiB (80%)
Writing library : XviD 1.2.1 (UTC 2008-12-04)
Audio #1
ID : 1
Format : AC-3
Format/Info : Audio Coding 3
Mode extension : CM (complete main)
Codec ID : 2000
Duration : 2h 5mn
Bit rate mode : Constant
Bit rate : 448 Kbps
Channel(s) : 6 channels
Channel positions : Front: L C R, Side: L R, LFE
Sampling rate : 48.0 KHz
Bit depth : 16 bits
Compression mode : Lossy
Stream size : 403 MiB (19%)
Alignment : Split accross interleaves
Interleave, duration : 42 ms (1.00 video frame)
Interleave, preload duration : 500 ms

Скриншоты


Создавать темы 28-Мар-2014 08:30

[Профиль]  [ЛС] 

mr.green

Стаж: 3 года 10 месяцев

Сообщений: 25

Симпатии: 6

концовка не понятно. сколько жертв...

Создавать темы 08-Апр-2014 23:15

[Профиль]  [ЛС] 

mr.green

Стаж: 3 года 10 месяцев

Сообщений: 25

Симпатии: 6

фильм не понравилась

Создавать темы 08-Апр-2014 23:17

[Профиль]  [ЛС] 

Артемий

Стаж: 4 года 11 месяцев

Сообщений: 96

Симпатии: 6

809266концовка не понятно. сколько жертв...
Чего там непонятного? Адам и Ева...и мишка белый...

Создавать темы 08-Апр-2014 23:52

[Профиль]  [ЛС] 

outoforder

Стаж: 4 года 9 месяцев

Сообщений: 812

Симпатии: 172

Чего там непонятного? Адам и Ева...и мишка белый...
Нее врядли. Куча замерзших трупиков. Фильм вроде норм, но концовка слабовата - уж очень много излишнего оптимизма.

Создавать темы 23-Июл-2014 22:12

[Профиль]  [ЛС] 
Показать сообщения:    
Ответить на тему

Текущее время: 24-Авг 10:04

Часовой пояс: UTC + 5



Вы не можете начинать темы
Вы не можете отвечать на сообщения
Вы не можете редактировать свои сообщения
Вы не можете удалять свои сообщения
Вы не можете голосовать в опросах
Вы не можете прикреплять файлы к сообщениям
Вы не можете скачивать файлы