Всё ещё возможно / Da geht noch was! (Хольгер Хаазе) [2013, Комедия, семейная , HDRip]

Ответить на тему
 

Каротажник ®

Стаж: 3 года 11 месяцев

Сообщений: 195

Симпатии: 211

Всё ещё возможно / Da geht noch was!

Год выпуска: 2013
Страна: Германия
Жанр: Комедия, семейная-Продолжительность: 101 мин. / 01:41
Перевод: Любительский (одноголосный)-Режиссёр: Хольгер Хаазе
В ролях: Флориан Давид Фиц, Хенри Хюбхен, Мариус В. Хаас, Лесли Молтон, Текла Рютен, Джэйми Бик, Феликс фон Мантейфель, Eva-Maria Kromer, Флориан Брюкнер, Mahendra Munisamy-
Из-за ворчливости своего отца Карла Конрад свёл к минимуму визиты к родителям. Тот постоянно недоволен его женой Тамарой и сыном Йонасом. На ежегодной встрече мать Конрада Хелена застаёт его врасплох неожиданными новостями. После 40 лет совместной жизни она оставила мужа и теперь просит сына навестить семейный дом.
Там он застаёт заливающего горе отца за горой банок из-под пива. Когда Карл получает тяжёлую травму от падения в бассейн, Конрад вместе с сыном вынужден переехать к нему, чтобы присматривать за больным. Смогут ли ужиться вместе три поколения под одной крышей?- -
Качество: HDRip
Формат: Avi-Видео: XviD, 1531 Кбит/с, 720x304
Аудио: AC3, 2 ch, 320 Кбит/с

Media Info

Format : AVI
Format/Info : Audio Video Interleave
File size : 1.31 GiB
Duration : 1h 40mn
Overall bit rate : 1 861 Kbps
Writing application : VirtualDubMod 1.5.10.2 (build 2542/release)
Writing library : VirtualDubMod build 2542/release
Video
ID : 0
Format : MPEG-4 Visual
Format profile : Advanced [email protected]
Format settings, BVOP : 2
Format settings, QPel : No
Format settings, GMC : No warppoints
Format settings, Matrix : Default (H.263)
Codec ID : XVID
Codec ID/Hint : XviD
Duration : 1h 40mn
Bit rate : 1 532 Kbps
Width : 720 pixels
Height : 304 pixels
Display aspect ratio : 2.35:1
Frame rate : 24.000 fps
Color space : YUV
Chroma subsampling : 4:2:0
Bit depth : 8 bits
Scan type : Progressive
Compression mode : Lossy
Bits/(Pixel*Frame) : 0.292
Stream size : 1.08 GiB (82%)
Writing library : XviD 1.2.1 (UTC 2008-12-04)
Audio
ID : 1
Format : AC-3
Format/Info : Audio Coding 3
Mode extension : CM (complete main)
Format settings, Endianness : Big
Codec ID : 2000
Duration : 1h 40mn
Bit rate mode : Constant
Bit rate : 320 Kbps
Channel(s) : 2 channels
Channel positions : Front: L R
Sampling rate : 48.0 KHz
Bit depth : 16 bits
Compression mode : Lossy
Stream size : 231 MiB (17%)
Alignment : Split accross interleaves
Interleave, duration : 42 ms (1.00 video frame)
Interleave, preload duration : 500 ms

Скриншоты


Создавать темы 28-Мар-2014 13:47

[Профиль]  [ЛС] 
Показать сообщения:    
Ответить на тему

Текущее время: 24-Сен 19:09

Часовой пояс: UTC + 5



Вы не можете начинать темы
Вы не можете отвечать на сообщения
Вы не можете редактировать свои сообщения
Вы не можете удалять свои сообщения
Вы не можете голосовать в опросах
Вы не можете прикреплять файлы к сообщениям
Вы не можете скачивать файлы