Знамение Судного дня / The 12 Disasters of Christmas (Стивен Р. Монро) [2012 г., фантастика, HDRip]

Ответить на тему
 

igor1968 ®

Стаж: 5 лет 7 месяцев

Сообщений: 366

Симпатии: 197

Знамение Судного дня / The 12 Disasters of Christmas
Год выпуска: 2012
Страна:
Жанр: фантастика
Продолжительность: 01:29:47.595
Перевод: Профессиональный (многоголосый, закадровый)
Режиссер: Стивен Р. Монро
В ролях: Эд Куинн
Магда Апанович
Холли Элисса
Роурк Критчлоу
Эндрю Эйрли
Райан Грэнтхем
Грег Кин
Каж-Эрик Эриксен
Доннелли Роудс
Бренна О’Брайэн
...
Появление таинственной рождественской звезды предвещает конец света. Но что если одна девочка-подросток сможет предотвратить всемирную катастрофу?- -Качество: HDRip
Формат: AVI
Видео кодек: XviD
Аудио кодек: AC3
Видео: 720x400 (1.80:1), 23.976 fps, XviD build 50 ~1868 kbps avg, 0.27 bit/pixel
Аудио: 48 kHz, AC3 Dolby Digital, 3/2 (L,C,R,l,r) + LFE ch, ~448.00 kbps avg-

MediaInfo

General
Complete name : Znamenie.Sydnogo.dnya.2012.P.HDRip.1.46Gb.avi
Format : AVI
Format/Info : Audio Video Interleave
File size : 1.46 GiB
Duration : 1h 29mn
Overall bit rate : 2 326 Kbps
Writing application : VirtualDubMod 1.5.10.2 (build 2540/release)
Writing library : VirtualDubMod build 2540/release
Video
ID : 0
Format : MPEG-4 Visual
Format profile : Advanced [email protected]
Format settings, BVOP : Yes
Format settings, QPel : No
Format settings, GMC : No warppoints
Format settings, Matrix : Default (MPEG)
Codec ID : XVID
Codec ID/Hint : XviD
Duration : 1h 29mn
Bit rate : 1 869 Kbps
Width : 720 pixels
Height : 400 pixels
Display aspect ratio : 16:9
Frame rate : 23.976 fps
Color space : YUV
Chroma subsampling : 4:2:0
Bit depth : 8 bits
Scan type : Progressive
Compression mode : Lossy
Bits/(Pixel*Frame) : 0.271
Stream size : 1.17 GiB (80%)
Writing library : XviD 1.2.1 (UTC 2008-12-04)
Audio
ID : 1
Format : AC-3
Format/Info : Audio Coding 3
Mode extension : CM (complete main)
Format settings, Endianness : Big
Codec ID : 2000
Duration : 1h 29mn
Bit rate mode : Constant
Bit rate : 448 Kbps
Channel count : 6 channels
Channel positions : Front: L C R, Side: L R, LFE
Sampling rate : 48.0 KHz
Bit depth : 16 bits
Compression mode : Lossy
Stream size : 288 MiB (19%)
Alignment : Split accross interleaves
Interleave, duration : 42 ms (1.00 video frame)
Interleave, preload duration : 500 ms
-

Скриншоты

- - -

Создавать темы 29-Мар-2014 09:37

[Профиль]  [ЛС] 

zexx

Стаж: 4 года 2 месяца

Сообщений: 10

По скринам видно ТВ3)))

Создавать темы 29-Мар-2014 17:56

[Профиль]  [ЛС] 

laconic

Стаж: 3 года 11 месяцев

Сообщений: 19

Симпатии: 1

может кто-нибудь встанет на раздачу!

Создавать темы 29-Мар-2014 18:11

[Профиль]  [ЛС] 

igor1968 ®

Стаж: 5 лет 7 месяцев

Сообщений: 366

Симпатии: 197

804060может кто-нибудь встанет на раздачу!

Скриншоты

Создавать темы 29-Мар-2014 18:23

[Профиль]  [ЛС] 

Aset

Стаж: 4 года

Сообщений: 54

Симпатии: 3

804049По скринам видно ТВ3)))
да и нафиг такие фильмы снимать

Создавать темы 05-Апр-2014 14:48

[Профиль]  [ЛС] 

Mehti

Стаж: 5 лет 5 месяцев

Сообщений: 140

Симпатии: 17

Первый скриншот ГАВНО

Создавать темы 08-Окт-2014 19:41

[Профиль]  [ЛС] 
Показать сообщения:    
Ответить на тему

Текущее время: 19-Окт 14:16

Часовой пояс: UTC + 5



Вы не можете начинать темы
Вы не можете отвечать на сообщения
Вы не можете редактировать свои сообщения
Вы не можете удалять свои сообщения
Вы не можете голосовать в опросах
Вы не можете прикреплять файлы к сообщениям
Вы не можете скачивать файлы