Друг 2: Наследие / Friend 2 (Chingoo 2) (Кён Тхэк Квак) [2013, Боевик, драма, криминал, HDRip]

Ответить на тему
 

Каротажник ®

Стаж: 3 года 11 месяцев

Сообщений: 195

Симпатии: 211

Друг 2: Наследие / Friend 2

Год выпуска: 2013
Страна: США, Южная Корея, Trinity Entertainment
Жанр: Боевик, драма, криминал

Продолжительность: 02:01:13
Перевод: Любительский двухголосый [Ольга Гринтиева и Франк Цветков]

Режиссёр: Кён Тхэк Квак
В ролях: У Бин Ким, О Сон Ю, Чжин Мо Чу, Ён Нам Чан, Хо Бин Чон, Сын Хён Чжи, А Ин Пак, Чжи Хёк Мин

Чжун Сок и Дон Су были друзьями с детства. Но судьба распорядилась так, что они стали членами двух враждующих бандитских группировок. Их банды вовлечены в борьбу за власть. Дон Су жестоко убивают и обставляют дело так, будто заказчиком убийства был Чжун Сок, который берет на себя вину за смерть друга, потому что чувствует себя виноватым, что не смог предотвратить это убийство. Его приговаривают к 18 годам тюрьмы. У Дон Су остается маленький сын Сон Хон, который став взрослым, попадает в тюрьму, где знакомится с Чжун Соком, которым начинает восхищаться. А после освобождения из тюрьмы Чжун Сок берет парня к себе в банду и делает его своей правой рукой. Однако всё меняется когда, Сон Хон узнает, что Чжун Сок имеет отношение к смерти его отца…




Качество: HDRip
Формат: Avi

Видео: XviD, 1527 Кбит/с, 720x400
Аудио: MP3, 2 ch, 192 Кбит/с

Media Info

Format : AVI
Format/Info : Audio Video Interleave
File size : 1.46 GiB
Duration : 2h 1mn
Overall bit rate : 1 729 Kbps
Writing application : VirtualDubMod 1.5.10.2 (build 2540/release)
Writing library : VirtualDubMod build 2540/release
Video
ID : 0
Format : MPEG-4 Visual
Format profile : Advanced [email protected]
Format settings, BVOP : 1
Format settings, QPel : No
Format settings, GMC : No warppoints
Format settings, Matrix : Custom
Codec ID : XVID
Codec ID/Hint : XviD
Duration : 2h 1mn
Bit rate : 1 528 Kbps
Width : 720 pixels
Height : 400 pixels
Display aspect ratio : 16:9
Frame rate : 23.976 fps
Color space : YUV
Chroma subsampling : 4:2:0
Bit depth : 8 bits
Scan type : Progressive
Compression mode : Lossy
Bits/(Pixel*Frame) : 0.221
Stream size : 1.29 GiB (88%)
Writing library : XviD 73
Audio
ID : 1
Format : MPEG Audio
Format version : Version 1
Format profile : Layer 3
Mode : Joint stereo
Codec ID : 55
Codec ID/Hint : MP3
Duration : 2h 1mn
Bit rate mode : Constant
Bit rate : 192 Kbps
Channel(s) : 2 channels
Sampling rate : 48.0 KHz
Compression mode : Lossy
Stream size : 166 MiB (11%)
Alignment : Aligned on interleaves
Interleave, duration : 42 ms (1.00 video frame)
Interleave, preload duration : 504 ms

Скриншоты


Создавать темы 29-Мар-2014 19:28

[Профиль]  [ЛС] 

pct

Стаж: 6 лет 7 месяцев

Сообщений: 120

Симпатии: 12

Ипать, это же приквел к "Новому миру"!!! Качаем!

Создавать темы 02-Апр-2014 22:55

[Профиль]  [ЛС] 

pct

Стаж: 6 лет 7 месяцев

Сообщений: 120

Симпатии: 12

Fixed: сиквел!

Создавать темы 02-Апр-2014 22:57

[Профиль]  [ЛС] 
Показать сообщения:    
Ответить на тему

Текущее время: 23-Сен 01:48

Часовой пояс: UTC + 5



Вы не можете начинать темы
Вы не можете отвечать на сообщения
Вы не можете редактировать свои сообщения
Вы не можете удалять свои сообщения
Вы не можете голосовать в опросах
Вы не можете прикреплять файлы к сообщениям
Вы не можете скачивать файлы