Пёс и Пускающая в ход ножницы / Inu to Hasami wa Tsukaiyou (Такахаси Юкио) [TV] [12 из 12] [без хардсаба] [RUS(ext), JAP+SUB] [2013 г., комедия, детектив, эччи, BDRip] [720p]

Ответить на тему
 

MeiDoCorpse ®

Стаж: 4 года 7 месяцев

Сообщений: 222

Симпатии: 14

Год выпуска: 2013
Страна: Япония
Жанр: комедия, детектив, эччи
Продолжительность: ТВ | 12 эп. по 24 мин.-Режиссер: Такахаси Юкио
Автор оригинала: Сараи Сюнсукэ
Студия: Gonzo Digimation-Описание:
Мудрые не зря говорили - во всем надо знать меру! Старшеклассник Кадзухито Харуми настолько одержим книгами и чтением, что перестал различать явь и фантазии. В кафе парень, заступившись за незнакомку, с голыми руками прыгнул на психопата с обрезом – кончилось все печально. Но литературные боги дали горе-читателю шанс, возродив его в теле таксы с человеческим сознанием. Вторым воздаянием за добрые дела стало то, что Кадзухито чудесным образом попал к той самой девушке, которую пытался защитить. Остальное было вполне ожидаемо – Кирихимэ Нацуно, новая хозяйка, могла общаться с Харуми мысленно и к тому же оказалась его любимым автором, пишущим под псевдонимом Синобу Акияма!
Тут бедный Харуми и понял, что все в мире относительно. С одной стороны, жить в доме обожаемого писателя среди тысяч книг – это ли не рай для истинного поклонника, пускай в собачьем обличье?! С другой стороны, красавица Нацуно – особа резкая и суровая, остер у нее не только язычок, но и край любимых ножниц, фамильного личного оружия. Впрочем, покрутившись в литературных кругах, главный герой убедился, что хозяйка еще ничего, среди гениальных авторов нормальных людей нет, и вообще с божественным замыслом не спорят. А значит – вперед, в гущу приключений, ибо верный пес должен помогать слабой девушке, а то Акияма-сэнсэй новых шедевров больше не напишет!
© Hollow, World Art
-Cсылки: Официальная страница || AniDB || World Art || MAL-Качество: BDRip
Энкод: Winter
Контейнер: mkv
Тип видео: Без хардсаба
Наличие линковки: Нет
Видео: x264 (Hi10p), 1280x720, ~3400 Kbps, 23.976 fps
Аудио: Japanese, Vorbis, 48000Hz, ~256 Kbps, 2ch, в составе контейнера
Аудио: Russian, AC3, 48000Hz, ~192 Kbps, 2ch, внешними файлами
  • Двухголосая озвучка от Mistake & becky
Субтитры: Russian, ASS, внешними файлами
  • Перевод от Mougrim
-

Список эпизодов

01. Every Dog Has His Day
02. Strike While the Dog Is Hot
03. The Winter Dog Flies into the Fire
04. Drowning Men Clutch at Dogs
05. Nothing Ventured, No Dog Gained
06. Rain Settles the Dog
07. The Dog Would Not Be Shot but for Its Cries
08. Dogs in Moderation
09. There Is No Smoke Without Dog
10. Time Flies Like a Dog
11. A Dog by Chance Is Preordained
12. Dogs and Scissors Require Good Handling

Скриншоты

Подробные тех. данные

General
Unique ID : 235741355979310645660397624024421239987 (0xB15A22379D27887EBB0283CBEEBA0CB3)
Complete name : ***\Inu to Hasami wa Tsukaiyou [BD] [720p]\[Winter] Inu to Hasami wa Tsukaiyou 01 [BDrip 1280x720 x264 Vorbis].mkv
Format : Matroska
Format version : Version 2
File size : 718 MiB
Duration : 23mn 41s
Overall bit rate mode : Variable
Overall bit rate : 4 239 Kbps
Encoded date : UTC 2013-10-31 09:30:36
Writing application : mkvmerge v2.9.8 ('C'est le bon') built on Aug 13 2009 12:49:06
Writing library : libebml v0.7.7 + libmatroska v0.8.1
Video
ID : 1
Format : AVC
Format/Info : Advanced Video Codec
Format profile : High [email protected]
Format settings, CABAC : Yes
Format settings, ReFrames : 9 frames
Codec ID : V_MPEG4/ISO/AVC
Duration : 23mn 41s
Bit rate : 3 899 Kbps
Width : 1 280 pixels
Height : 720 pixels
Display aspect ratio : 16:9
Frame rate mode : Constant
Frame rate : 23.976 fps
Color space : YUV
Chroma subsampling : 4:2:0
Bit depth : 10 bits
Scan type : Progressive
Bits/(Pixel*Frame) : 0.176
Stream size : 660 MiB (92%)
Writing library : x264 core 132 r2309 3b1f1f7
Encoding settings : cabac=1 / ref=9 / deblock=1:-2:-2 / analyse=0x3:0x133 / me=umh / subme=9 / psy=1 / psy_rd=0.90:0.00 / mixed_ref=1 / me_range=24 / chroma_me=1 / trellis=2 / 8x8dct=1 / cqm=0 / deadzone=21,11 / fast_pskip=1 / chroma_qp_offset=-2 / threads=6 / lookahead_threads=1 / sliced_threads=0 / nr=0 / decimate=0 / interlaced=0 / bluray_compat=0 / constrained_intra=0 / bframes=8 / b_pyramid=2 / b_adapt=2 / b_bias=0 / direct=1 / weightb=1 / open_gop=0 / weightp=2 / keyint=250 / keyint_min=23 / scenecut=40 / intra_refresh=0 / rc=crf / mbtree=0 / crf=15.8 / qcomp=0.70 / qpmin=9 / qpmax=40 / qpstep=4 / ip_ratio=1.40 / pb_ratio=1.30 / aq=1:0.90
Default : No
Forced : No
Audio
ID : 2
Format : Vorbis
Format settings, Floor : 1
Codec ID : A_VORBIS
Duration : 23mn 41s
Bit rate mode : Variable
Bit rate : 256 Kbps
Channel count : 2 channels
Sampling rate : 48.0 KHz
Compression mode : Lossy
Stream size : 43.4 MiB (6%)
Writing library : libVorbis (Schaufenugget) (20101101 (Schaufenugget))
Language : Japanese
Default : Yes
Forced : No

Создавать темы 31-Мар-2014 05:48

[Профиль]  [ЛС] 

LikeSmile

Стаж: 4 года 7 месяцев

Сообщений: 298

Симпатии: 48

Danganronpa будет?)

Создавать темы 31-Мар-2014 11:17

[Профиль]  [ЛС] 

Alex_38

Стаж: 5 лет 9 месяцев

Сообщений: 336

Симпатии: 37

LikeSmile, разве она полностью вышла?)

Создавать темы 31-Мар-2014 15:17

[Профиль]  [ЛС] 

LikeSmile

Стаж: 4 года 7 месяцев

Сообщений: 298

Симпатии: 48

804914LikeSmile, разве она полностью вышла?)
я наперед спросил). т.е. будет релизить, когда выйдет, или нет)

Создавать темы 31-Мар-2014 15:48

[Профиль]  [ЛС] 

MeiDoCorpse ®

Стаж: 4 года 7 месяцев

Сообщений: 222

Симпатии: 14

LikeSmile, буду.

Создавать темы 31-Мар-2014 16:55

[Профиль]  [ЛС] 

Alex_38

Стаж: 5 лет 9 месяцев

Сообщений: 336

Симпатии: 37

LikeSmile, Ждать теперь остается полного выхода)

Создавать темы 31-Мар-2014 18:44

[Профиль]  [ЛС] 
Показать сообщения:    
Ответить на тему

Текущее время: 11-Дек 20:08

Часовой пояс: UTC + 5



Вы не можете начинать темы
Вы не можете отвечать на сообщения
Вы не можете редактировать свои сообщения
Вы не можете удалять свои сообщения
Вы не можете голосовать в опросах
Вы не можете прикреплять файлы к сообщениям
Вы не можете скачивать файлы