Охотники за духами / Ghost Team One (Бен Пейсер, Скотт Рутерфорд) (2013 г., Ужасы, Комедия, HDRip) [iTunes Russia]

Ответить на тему
 

Suxrob89 ®

Стаж: 7 лет

Сообщений: 933

Симпатии: 564

-Охотники за духами / Ghost Team One-«Arouse the Dead»- Год выпуска: 2013
Производство: США | Hernany Perla Films, Flying Monkeys Entertainment
Жанр: Ужасы, Комедия
Продолжительность: 01:24:15
Перевод: Дублированный [iTunes Russia]
Субтитры: Отсутствуют-Дата мировой премьеры: 20 января 2013 (США, Кинофестиваль «Слэмдэнс»)-Режиссер: Бен Пейсер, Скотт Рутерфорд
Продюсер: Адам Мутчлер, Нэйт Паркер, Люк Де Грозейе
Актеры: Карлос Сантос, Х.Р. Вильярреаль, Фернанда Ромеро, Тони Кавалеро, Меган Фальконе, Джеймс Бэбсон, Скотт МакАртур, Крэйг Стотт, Фелиция Хом-Описание фильма:
Когда соседи по комнате Бред и Сержио случайно пробуждают мятежного духа, они обьединяются с сексуальной охотницей на призраков, Фернандой, чтобы извести зло, поселившееся в их доме. Но по мере того, как ребята начинают подбираться поближе к прелестям новой партнёрши, проделки рогатого демона набирают обороты! Работают камеры, ужас сгущается, неприличный фарс становиться всё веселее.-Качество: HDRip
Формат: AVI
Видео: MPEG4, XviD, 720x400 (16:9), 23.976 fps, 1 926 Kbps (0.279 bit/pixel)
Аудио: AC3, 48.0 KHz, 6 ch, 384 Kbps, CBR

Media info

Полное имя                               : G:\Ohotniki.za.duhami.2013.D.HDRip.1400Mb.avi
Формат                                   : AVI
Формат/Информация                        : Audio Video Interleave
Размер файла                             : 1,36 Гбайт
Продолжительность                        : 1 ч. 24 м.
Общий поток                              : 2319 Кбит/сек
Программа кодирования                    : VirtualDubMod 1.5.10.3 | www.virtualdub-fr.org || (build 2550/release)
Библиотека кодирования                   : VirtualDubMod build 2550/release
Видео
Идентификатор                            : 0
Формат                                   : MPEG-4 Visual
Профиль формата                          : Advanced [email protected]
Параметр BVOP формата                    : 2
Параметр QPel формата                    : Нет
Параметр GMC формата                     : Без точки перехода
Параметр матрицы формата                 : Выборочная
Идентификатор кодека                     : XVID
Идентификатор кодека/Подсказка           : XviD
Продолжительность                        : 1 ч. 24 м.
Битрейт                                  : 1926 Кбит/сек
Ширина                                   : 720 пикселей
Высота                                   : 400 пикселей
Соотношение сторон                       : 16:9
Частота кадров                           : 23,976 кадра/сек
Цветовое пространство                    : YUV
Субдискретизация насыщенности            : 4:2:0
Битовая глубина                          : 8 бит
Тип развёртки                            : Прогрессивная
Метод сжатия                             : С потерями
Бит/(Пиксели*Кадры)                      : 0.279
Размер потока                            : 1,13 Гбайт (83%)
Библиотека кодирования                   : XviD 1.2.1 (UTC 2008-12-04)
Аудио
Идентификатор                            : 1
Формат                                   : AC-3
Формат/Информация                        : Audio Coding 3
Расширение режима                        : CM (complete main)
Параметр Endianness формата              : Big
Идентификатор кодека                     : 2000
Продолжительность                        : 1 ч. 24 м.
Вид битрейта                             : Постоянный
Битрейт                                  : 384 Кбит/сек
Каналы                                   : 6 каналов
Расположение каналов                     : Front: L C R, Side: L R, LFE
Частота                                  : 48,0 КГц
Битовая глубина                          : 16 бит
Метод сжатия                             : С потерями
Размер потока                            : 231 Мбайт (17%)
Выравнивание                             : Разделение по промежуткам
Продолжительность промежутка             : 42  мс. (1,00 видеокадр)
Время предзагрузки промежутка            : 500  мс.

Скриншоты

Создавать темы 02-Апр-2014 06:45

[Профиль]  [ЛС] 
Показать сообщения:    
Ответить на тему

Текущее время: 19-Авг 08:45

Часовой пояс: UTC + 5



Вы не можете начинать темы
Вы не можете отвечать на сообщения
Вы не можете редактировать свои сообщения
Вы не можете удалять свои сообщения
Вы не можете голосовать в опросах
Вы не можете прикреплять файлы к сообщениям
Вы не можете скачивать файлы