Дубровский (Александр Вартанов, Кирилл Михановский) [2014 г., Драма, DVDRip] [лицензия]

Ответить на тему
 

Suxrob89 ®

Стаж: 7 лет 4 месяца

Сообщений: 933

Симпатии: 564

-Дубровский- Год выпуска: 2014
Производство: Россия, «ТВИНДИ»
Продолжительность: 02:05:14
Жанр: Драма
Перевод: Оригинал [лицензия]
Субтитры: Отсутствуют-Режиссер: Александр Вартанов, Кирилл Михановский-В ролях: Данила Козловский, Клавдия Коршунова, Юрий Цурило, Александр Мезенцев, Игорь Гордин, Дмитрий Поднозов, Елена Дудина, Евгений Вакунов, Артем Кобзев, Любовь Сергеева, Никита Тезин-Описание фильма:
Владимир — успешный столичный банкир и завсегдатай модных клубов, Маша – прилежная студентка юридического факультета и нежная дочь… Ничто не предвещает трагического поворота в судьбе благополучных молодых людей. Однако неожиданная ссора взбалмошных отцов заставляет детей в деталях пережить пушкинскую коллизию. Это классический сюжет криминальной драмы, который перенесен в современность и изложенный современным языком.- -Возраст: 16+-Качество: DVDRip
Формат: AVI
Видео: 720x400 (16:9), 25.000 fps, XviD ~ 1889kbps avg, 0.285 bit/pixel
Аудио: 48 kHz, AC3 Dolby Digital, 3/2 (L,C,R,l,r) + LFE ch, ~448.00 kbps

Media info

Общее
Полное имя                               : E:\Dubrovskiy.2014.O.DVDRip.2100MB.avi
Формат                                   : AVI
Формат/Информация                        : Audio Video Interleave
Профиль формата                          : OpenDML
Размер файла                             : 2,06 Гбайт
Продолжительность                        : 2 ч. 5 м.
Общий поток                              : 2349 Кбит/сек
Программа кодирования                    : VirtualDubMod 1.5.10.3 || (build 2550/release)
Библиотека кодирования                   : VirtualDubMod build 2550/release
Видео
Идентификатор                            : 0
Формат                                   : MPEG-4 Visual
Профиль формата                          : Advanced [email protected]
Параметр BVOP формата                    : 2
Параметр QPel формата                    : Нет
Параметр GMC формата                     : Без точки перехода
Параметр матрицы формата                 : Default (MPEG)
Идентификатор кодека                     : XVID
Идентификатор кодека/Подсказка           : XviD
Продолжительность                        : 2 ч. 5 м.
Битрейт                                  : 1889 Кбит/сек
Ширина                                   : 720 пикселей
Высота                                   : 400 пикселей
Соотношение сторон                       : 16:9
Частота кадров                           : 25,000 кадров/сек
Цветовое пространство                    : YUV
Субдискретизация насыщенности            : 4:2:0
Битовая глубина                          : 8 бит
Тип развёртки                            : Прогрессивная
Метод сжатия                             : С потерями
Бит/(Пиксели*Кадры)                      : 0.262
Размер потока                            : 1,65 Гбайт (80%)
Библиотека кодирования                   : XviD 1.2.1 (UTC 2008-12-04)
Аудио
Идентификатор                            : 1
Формат                                   : AC-3
Формат/Информация                        : Audio Coding 3
Расширение режима                        : CM (complete main)
Параметр Endianness формата              : Big
Идентификатор кодека                     : 2000
Продолжительность                        : 2 ч. 5 м.
Вид битрейта                             : Постоянный
Битрейт                                  : 448 Кбит/сек
Каналы                                   : 6 каналов
Расположение каналов                     : Front: L C R, Side: L R, LFE
Частота                                  : 48,0 КГц
Битовая глубина                          : 16 бит
Метод сжатия                             : С потерями
Размер потока                            : 401 Мбайт (19%)
Выравнивание                             : Разделение по промежуткам
Продолжительность промежутка             : 40  мс. (1,00 видеокадр)
Время предзагрузки промежутка            : 500  мс.

Скриншоты

Создавать темы 02-Апр-2014 23:47

[Профиль]  [ЛС] 

AeRoNHanD

Стаж: 5 лет 2 месяца

Сообщений: 198

Симпатии: 3

Интересный???

Создавать темы 04-Апр-2014 18:49

[Профиль]  [ЛС] 

heps

Стаж: 3 года 11 месяцев

Сообщений: 4

Жена обрадуется, ждала этот фильм.

Создавать темы 13-Апр-2014 13:15

[Профиль]  [ЛС] 

АлександрС

Стаж: 5 лет 3 месяца

Сообщений: 56

Симпатии: 1

Тупой фильм

Создавать темы 20-Апр-2014 15:54

[Профиль]  [ЛС] 

ELVIRALTW

Стаж: 5 лет 6 месяцев

Сообщений: 45

Симпатии: 1

Фильм оооочень хороший! Со смыслом! Советую посмотреть!

Создавать темы 26-Апр-2014 06:41

[Профиль]  [ЛС] 

Xuri007

Стаж: 5 лет 6 месяцев

Сообщений: 106

to tg to
807049Интересный???

Создавать темы 05-Окт-2014 11:09

[Профиль]  [ЛС] 
Показать сообщения:    
Ответить на тему

Текущее время: 15-Дек 20:53

Часовой пояс: UTC + 5



Вы не можете начинать темы
Вы не можете отвечать на сообщения
Вы не можете редактировать свои сообщения
Вы не можете удалять свои сообщения
Вы не можете голосовать в опросах
Вы не можете прикреплять файлы к сообщениям
Вы не можете скачивать файлы