Судьба: Начало (ТВ-2) / Fate/Zero II (Аоки Эй) [TV] [12 из 12] [Без хардсаба] [RUS(ext), JAP+SUB] [2012 г., фэнтези, драма, BDRip] [720p]

Ответить на тему
 

Alex_38 ®

Стаж: 5 лет 9 месяцев

Сообщений: 336

Симпатии: 37

- Год выпуска: 2012
Страна: Япония
Жанр: фэнтези, драма
Продолжительность: 12 эп. по 24 мин.
Выпуск: c 08.04.2012 по 24.06.2012-Перевод:
  • русские субтитры от Shift (полные/вспомогательные)
    переводчик: der_zauberer, редакторы: Jaga, Zelretch
-Режиссер: Аоки Эй
Автор оригинала: Уробути Гэн
Студия: ufotable-Описание:
Четвертая война Святого Грааля, величайший магический ритуал, призванный решить судьбы мира, вступает в завершающую фазу. Еще никогда на поле брани не выходили столь могучие воины-Слуги, да и маги-Мастера оказались им под стать. Большинство Мастеров знают, что в этой войне кому-то суждено добыть Грааль, и потому, как разумные люди, наплевали на правила и принялись с первых же часов активно обманывать, подставлять и убивать как врагов, так и союзников. Ряды участников редеют, а битвы уже невозможно скрыть от посторонних, ибо вызванные монстры вот-вот снесут маленький городок Фуюки с лица земли.
Итак, знакомство давно позади, маски сброшены, сильные и слабые стороны каждого Мастера и Слуги известны. Мы узнали, как началась эта история, и знаем, как она закончится. Осталось лишь насладиться тем, что было посередине!
© Hollow, World Art-Информационные ссылки: AniDB || World Art || MAL
-

Список Эпизодов

01. The Mion River Battle
02. Golden Shine
03. The End of Honor
04. The Eighth Contract
05. Distant Memories
06. Where Justice Is Found
07. Return of the Assassin
08. Knight on Two Wheels
09. All the Evil in the World
10. The Sea at the End of the World
11. The Last Command Seal
12. Fate/Zero
-Качество: BDRip
Энкод: Yousei-raws | #[email protected] rizon. net
Тип видео: без хардсаба
Формат: mkv
Видео: x264 (Hi10p), 1280x720, ~4500 Kbps, 23.976 fps
Аудио JAP: Vorbis, 48000Hz, ~256 Kbps, 2ch
Аудио RUS 1-7: AC3, 48000Hz, ~192 Kbps, 2ch (внешними файлами)
-

Список озвучек в раздаче

  • одноголосая (муж.) от Wolfys (AniDub)
  • двухголосая (муж./жен.) от Valkrist & Kasumi (AnimeReactor)
  • двухголосая (муж./жен.) от JAM & Eladiel (Animedia/Anilibria)
  • двухголосая (муж./жен.) от Всеволод Парк & Людмила Линькова (студия ART)
  • двухголосая (жен./муж.) от Lali & DemonOFmooN (Anifilm)
  • двухголосая (жен./муж.) от Eva & Mistake (Opendub)
  • многоголосая от NIKITOS, SakaE & Chihiro (SHIZA)-В озвучках присутствуют моменты без перевода (доп.сцены) - кроме озвучки JAM & Eladiel.

Отличия от других раздач

https://tas-ix.net/viewtopic.php?t=49508
- BDRip

Подробные тех. данные

General
Unique ID                                : 210229781036397378625671825246082995756 (0x9E28C875F6F0109EBB7A0411684E962C)
Complete name                            : D:\Релизы\Собственные\Релизы\Fate Zero TV-2 [BD] [720p]\[Yousei-raws] Fate Zero 14 [BDrip 1280x720 x264 Vorbis].mkv
Format                                   : Matroska
Format version                           : Version 2
File size                                : 916 MiB
Duration                                 : 23mn 42s
Overall bit rate mode                    : Variable
Overall bit rate                         : 5 402 Kbps
Encoded date                             : UTC 2012-09-21 02:38:42
Writing application                      : mkvmerge v2.9.7 ('Tenderness') built on Jul  1 2009 18:43:35
Writing library                          : libebml v0.7.7 + libmatroska v0.8.1
Video
ID                                       : 1
Format                                   : AVC
Format/Info                              : Advanced Video Codec
Format profile                           : High [email protected]
Format settings, CABAC                   : Yes
Format settings, ReFrames                : 9 frames
Codec ID                                 : V_MPEG4/ISO/AVC
Duration                                 : 23mn 42s
Bit rate                                 : 5 039 Kbps
Width                                    : 1 280 pixels
Height                                   : 720 pixels
Display aspect ratio                     : 16:9
Frame rate mode                          : Constant
Frame rate                               : 23.976 fps
Color space                              : YUV
Chroma subsampling                       : 4:2:0
Bit depth                                : 10 bits
Scan type                                : Progressive
Bits/(Pixel*Frame)                       : 0.228
Stream size                              : 854 MiB (93%)
Writing library                          : x264 core 125 r2200 999b753
Encoding settings                        : cabac=1 / ref=9 / deblock=1:-2:-2 / analyse=0x3:0x133 / me=umh / subme=9 / psy=1 / psy_rd=0.90:0.00 / mixed_ref=1 / me_range=24 / chroma_me=1 / trellis=2 / 8x8dct=1 / cqm=0 / deadzone=21,11 / fast_pskip=1 / chroma_qp_offset=-2 / threads=6 / lookahead_threads=1 / sliced_threads=0 / nr=0 / decimate=0 / interlaced=0 / bluray_compat=0 / constrained_intra=0 / bframes=8 / b_pyramid=2 / b_adapt=2 / b_bias=0 / direct=1 / weightb=1 / open_gop=0 / weightp=2 / keyint=250 / keyint_min=23 / scenecut=40 / intra_refresh=0 / rc=crf / mbtree=0 / crf=16.3 / qcomp=0.70 / qpmin=9 / qpmax=40 / qpstep=4 / ip_ratio=1.40 / pb_ratio=1.30 / aq=1:0.90
Default                                  : Yes
Forced                                   : No
Audio
ID                                       : 2
Format                                   : Vorbis
Format settings, Floor                   : 1
Codec ID                                 : A_VORBIS
Duration                                 : 23mn 42s
Bit rate mode                            : Variable
Bit rate                                 : 256 Kbps
Channel count                            : 2 channels
Sampling rate                            : 48.0 KHz
Compression mode                         : Lossy
Stream size                              : 43.4 MiB (5%)
Writing library                          : libVorbis (Schaufenugget) (20101101 (Schaufenugget))
Language                                 : Japanese
Default                                  : Yes
Forced                                   : No

Первый Сезон

--

Создавать темы 04-Апр-2014 20:32

[Профиль]  [ЛС] 
Показать сообщения:    
Ответить на тему

Текущее время: 14-Дек 17:58

Часовой пояс: UTC + 5



Вы не можете начинать темы
Вы не можете отвечать на сообщения
Вы не можете редактировать свои сообщения
Вы не можете удалять свои сообщения
Вы не можете голосовать в опросах
Вы не можете прикреплять файлы к сообщениям
Вы не можете скачивать файлы