Prada и чувства / From Prada to Nada (Анхель Грация) [2011 г., комедия, мелодрама, драма, WEBRip]

Ответить на тему
 

eny ®

Стаж: 3 года 9 месяцев

Сообщений: 4

Prada и чувства / From Prada to Nada
Год выпуска: 2011
Страна: США
Жанр: комедия, мелодрама, драма
Продолжительность: 01:46:31
Перевод: Профессиональный (многоголосый, закадровый)
Режиссер: Анхель Грация
В ролях: Камилла Белль, Алекса Вега, Тина Френч, Луис Розалес, Пабло Мартинез Де Веласко, Алексис Айала, Норма Рейна Брито, Адриана Барраза, Каталина Лопез, Хосе Мария Негри и др.
Описание: После внезапной смерти отца-миллионера две избалованные сестрички остаются без копейки денег. Из гламурного Беверли-Хиллз им приходится переехать к своей тетушке в самый бедный район Лос Анджелеса. Как тяжело расставаться с привычками богатеньких девочек! Но в самый острый момент отчаяния сестры найдут настоящую любовь.
Качество: WEBRip
Формат: FLV
Видео кодек: Sorenson Spark
Аудио кодек: MPEG Audio
Видео: 640 x 352 (16:9), 25.000 fps, 768 Kbps
Аудио: 44.1 KHz, 2 channels, 83.5 Kbps

MediaInfo

General
Complete name : E:\Кино\Prada.i.chuvstva.2011.L2.HDRip.flv
Format : Flash Video
File size : 654 MiB
Duration : 1h 46mn
Overall bit rate : 859 Kbps
Tagged date : UTC 2011-05-04 11:50:08
Tagging application : inlet media FLVTool2 v1.0.5
Video
Format : H.263
Duration : 1h 46mn
Bit rate : 768 Kbps
Width : 640 pixels
Height : 352 pixels
Display aspect ratio : 16:9
Frame rate : 25.000 fps
Bits/(Pixel*Frame) : 0.136
Stream size : 587 MiB (90%)
Audio
Format : MPEG Audio
Format version : Version 1
Format profile : Layer 3
Duration : 1h 46mn
Bit rate mode : Variable
Bit rate : 83.5 Kbps
Channel(s) : 2 channels
Sampling rate : 44.1 KHz
Resolution : 16 bits
Stream size : 66.2 MiB (10%)

Скриншоты






Последний раз редактировалось: eny (2014-04-07 00:06), всего редактировалось 1 раз

Создавать темы 05-Апр-2014 23:50

[Профиль]  [ЛС] 

ziyod

Стаж: 7 лет 6 месяцев

Сообщений: 367

Симпатии: 60

807747Аудио: 44.1 KHz, 2 channels, 83.5 Kbps

Создавать темы 06-Апр-2014 07:28

[Профиль]  [ЛС] 

eny ®

Стаж: 3 года 9 месяцев

Сообщений: 4

ziyod, Вы хотите сказать что я это все придумала?! Загляните в информацию о файле...

Создавать темы 06-Апр-2014 13:04

[Профиль]  [ЛС] 

СтАсИкОс

Стаж: 6 лет 8 месяцев

Сообщений: 314

Симпатии: 20

eny, Будьте добры, добавьте МИ
Как узнать тех. данные (включая MediaInfo) видео-файла с помощью Media Player Classic?

Создавать темы 06-Апр-2014 22:45

[Профиль]  [ЛС] 
Показать сообщения:    
Ответить на тему

Текущее время: 23-Сен 10:46

Часовой пояс: UTC + 5



Вы не можете начинать темы
Вы не можете отвечать на сообщения
Вы не можете редактировать свои сообщения
Вы не можете удалять свои сообщения
Вы не можете голосовать в опросах
Вы не можете прикреплять файлы к сообщениям
Вы не можете скачивать файлы