Вий (Олег Степченко) [2013, Россия, Украина, Германия, Фэнтези, триллер, приключения halfOU BDRip 1080p] Original rus

Ответить на тему
 

yusuf.0088 ®

Стаж: 4 года

Сообщений: 116

Симпатии: 69

В и й
«Не бойся...»-- Страна: Россия, Украина, Германия, Великобритания, Чехия
Жанр: Фэнтези, триллер, приключения
Год выпуска: 2013
Продолжительность: 02:10:12--Озвучивание: Оригинал
Cубтитры: нет--Режиссер: Олег Степченко--В ролях: Джейсон Флеминг, Алексей Чадов, Агния Дитковските, Андрей Смоляков, Игорь Жижикин, Олег Тактаров, Валерий Золотухин, Нина Русланова, Юрий Цурило, Александр Яковлев--Описание:
Начало XVIII века. Картограф Джонатан Грин совершает путешествие в Восточную Европу. Миновав Трансильванию, он понимает, что заблудился. Изрядно поплутав в тумане, он оказывается в небольшом казацком поселении. Народ живет здесь в затворничестве, оградив себя от любых контактов с остальным миром. Что скрывают жители хутора? Чего боятся и почему прячутся? Ученый решает разгадать тайну, связанную с именем необыкновенного мифического создания — Вия…-- --Формат 3Д: Вертикальная анаморфная стереопара
Качество: BDRip 1080p
Контейнер: MKV
Аудио кодек: AC3
Видео кодек: AVC
Видео: MPEG-4 AVC / High Profile 4.1 / 1920x1080 / 23.976 fps / 14500 kbps
Аудио: Русский / AC3 6ch / 48 KHz / 640 kbps |Original|
Сохранены оригинальные чаптеры как на Blu-Ray

MediaInfo

Формат : Matroska
Версия формата : Version 2
Размер файла : 14,0 Гбайт
Продолжительность : 2 ч. 10 м.
Общий поток : 15,4 Мбит/сек
Название фильма : Вий (2014) 3D
Дата кодирования : UTC 2014-03-16 05:17:54
Программа кодирования : mkvmerge v5.8.0 ('No Sleep / Pillow') built on Sep 2 2012 15:37:04
Библиотека кодирования : libebml v1.2.3 + libmatroska v1.3.0
Видео
Идентификатор : 1
Формат : AVC
Формат/Информация : Advanced Video Codec
Профиль формата : [email protected]
Параметр CABAC формата : Да
Параметр ReFrames формата : 4 кадра
Идентификатор кодека : V_MPEG4/ISO/AVC
Продолжительность : 2 ч. 10 м.
Битрейт : 14,5 Мбит/сек
Ширина : 1920 пикселей
Высота : 1080 пикселей
Соотношение сторон : 16:9
Режим частоты кадров : Постоянный
Частота кадров : 23,976 кадра/сек
Цветовое пространство : YUV
Субдискретизация насыщенности : 4:2:0
Битовая глубина : 8 бит
Тип развёртки : Прогрессивная
Бит/(Пиксели*Кадры) : 0.291
Размер потока : 13,2 Гбайт (94%)
Заголовок : BDRip by Ash61
Библиотека кодирования : x264 core 129 r2245 bc13772
Настройки программы : cabac=1 / ref=4 / deblock=1:-3:-3 / analyse=0x3:0x113 / me=umh / subme=10 / psy=1 / psy_rd=1.00:0.15 / mixed_ref=1 / me_range=32 / chroma_me=1 / trellis=2 / 8x8dct=1 / cqm=0 / deadzone=21,11 / fast_pskip=1 / chroma_qp_offset=-3 / threads=12 / lookahead_threads=2 / sliced_threads=0 / nr=0 / decimate=1 / interlaced=0 / bluray_compat=0 / constrained_intra=0 / bframes=9 / b_pyramid=2 / b_adapt=2 / b_bias=0 / direct=3 / weightb=1 / open_gop=0 / weightp=2 / keyint=250 / keyint_min=23 / scenecut=40 / intra_refresh=0 / rc_lookahead=60 / rc=crf / mbtree=1 / crf=17.0 / qcomp=0.70 / qpmin=0 / qpmax=69 / qpstep=4 / vbv_maxrate=40000 / vbv_bufsize=30000 / crf_max=0.0 / nal_hrd=none / frame-packing=4 / ip_ratio=1.40 / aq=1:0.70
Язык : Russian
Default : Да
Forced : Нет
Аудио
Идентификатор : 2
Формат : AC-3
Формат/Информация : Audio Coding 3
Расширение режима : CM (complete main)
Параметр Endianness формата : Big
Идентификатор кодека : A_AC3
Продолжительность : 2 ч. 10 м.
Вид битрейта : Постоянный
Битрейт : 640 Кбит/сек
Каналы : 6 каналов
Расположение каналов : Front: L C R, Side: L R, LFE
Частота : 48,0 КГц
Битовая глубина : 16 бит
Метод сжатия : С потерями
Размер потока : 596 Мбайт (4%)
Заголовок : Оригинал
Язык : Russian
Default : Да
Forced : Нет
Меню
00:00:00.000 : :1
00:16:15.474 : :2
00:32:07.634 : :3
00:44:54.650 : :4
01:07:12.195 : :5
01:20:37.791 : :6
01:37:30.803 : :7
01:52:43.131 : :8

Скриншоты

Создавать темы 06-Апр-2014 02:04

[Профиль]  [ЛС] 

Vlad7667

Стаж: 5 лет

Сообщений: 196

Симпатии: 187

Спасибо автору лови+

Создавать темы 06-Апр-2014 22:02

[Профиль]  [ЛС] 

morozko

Стаж: 6 лет 9 месяцев

Сообщений: 83

Симпатии: 17

ух-ты блин!ващпе ураган! пасиб огроменное!

Создавать темы 09-Апр-2014 08:33

[Профиль]  [ЛС] 

Ilay

Стаж: 4 года

Сообщений: 15

Симпатии: 2

просмотр

Создавать темы 21-Сен-2014 17:34

[Профиль]  [ЛС] 

Ilay

Стаж: 4 года

Сообщений: 15

Симпатии: 2

ллгпа

Создавать темы 21-Сен-2014 17:35

[Профиль]  [ЛС] 

maxakal

Стаж: 4 года

Сообщений: 10

Симпатии: 1

Скорости плиз

Создавать темы 11-Янв-2015 18:33

[Профиль]  [ЛС] 

Behzodjon

Стаж: 5 лет 7 месяцев

Сообщений: 43

Симпатии: 8

А на kmplayer можно смотреть в анаглифе?

Создавать темы 16-Янв-2015 00:55

[Профиль]  [ЛС] 

benny

Стаж: 6 лет 9 месяцев

Сообщений: 11

Симпатии: 1

Можно

Создавать темы 31-Янв-2015 08:37

[Профиль]  [ЛС] 

Kaito

Стаж: 3 года 10 месяцев

Сообщений: 11

Симпатии: 1

давайте скачаем уже

Создавать темы 11-Фев-2015 23:44

[Профиль]  [ЛС] 

GTuz

Стаж: 3 года 9 месяцев

Сообщений: 5

Симпатии: 2

выдите на раздачу!
вашпе не качает!

Создавать темы 24-Фев-2015 19:44

[Профиль]  [ЛС] 

GTuz

Стаж: 3 года 9 месяцев

Сообщений: 5

Симпатии: 2

кто скачал дайте другим скачать все на раздачу

Создавать темы 26-Фев-2015 19:02

[Профиль]  [ЛС] 
Показать сообщения:    
Ответить на тему

Текущее время: 23-Окт 07:44

Часовой пояс: UTC + 5



Вы не можете начинать темы
Вы не можете отвечать на сообщения
Вы не можете редактировать свои сообщения
Вы не можете удалять свои сообщения
Вы не можете голосовать в опросах
Вы не можете прикреплять файлы к сообщениям
Вы не можете скачивать файлы