Пляжные приключения Муроми / Namiuchigiwa no Muromi-san [TV] [13 из 13] [Без хардсаба] [RUS(ext), JAP+SUB] [2013 г., комедия, эччи, сёнэн, BDRip] [720p]

Ответить на тему
 

MeiDoCorpse ®

Стаж: 4 года 5 месяцев

Сообщений: 222

Симпатии: 14

Год выпуска: 2013
Страна: Япония
Жанр: комедия, эччи, сёнэн
Продолжительность: ТВ | 13 эп. по 12 мин.-Режиссер: Ёсихара Тацуя
Автор оригинала: Надзима Кэйдзи
Студия: Tatsunoko-Описание:
Старшеклассник Такуро Мукодзима обожает рыбачить, отдыхая душой в тишине на пустынном берегу. Идиллия длилась недолго: однажды юный удильщик взмахнул верным спиннингом и выловил русалку Муроми – особу очень милую и общительную. Зеленоволосая гостья, истомившаяся от однообразия морской жизни (японские русалки, как известно, бессмертны), подружилась с парнем и стала регулярно его навещать, болтая о том о сём, знакомя со своими подругами, и даже дала номер телефона!
Сначала Такуро, которого новая знакомая прозвала Таккун, жалел об утраченном покое, а потом, как говорится, втянулся. Муроми – девушка интересная, с ней никогда не скучно, а главное, можно узнать столько нового – к примеру, о падении континента Му, тайфунах-камикадзэ, подводных дворцах и истинном облике гималайского йети! А уж подруги и родственницы у русалочки такие, что иных и захочешь – долго не забудешь. В общем, жизнь у кромки прибоя пошла веселая, только не забывайте - никогда и ни за что не стоит спрашивать морских жительниц о возрасте!
© Hollow, World Art
-Cсылки: Официальная страница || AniDB || World Art || MAL-Качество: BDRip
Энкод: =^_^=
Контейнер: mkv
Тип видео: Без хардсаба
Наличие линковки: Нет
Видео: x264 (Hi10p), 1280x720, ~3000 Kbps, 23.976 fps
Аудио: Japanese, Vorbis, 48000Hz, ~320 Kbps, 2ch, в составе контейнера
Аудио: Russian, AC3, 48000Hz, ~192 Kbps, 2ch, внешними файлами
  • Двухголосая озвучка от Trouble & Nika_Lenina
Субтитры: Russian, ASS, внешними файлами
  • Перевод от HSTeam
-

Список эпизодов

01. Muromi-san on the Brink
02. Muromi-san and the Legendary Sea Creatures
03. Muromi-san and Old Memories
04. Muromi-san and the Food Chain
05. Muromi-san and Twin Mountain
06. Muromi-san and Ryuuguujou
07. The Boy, Kappa, and Muromi-san
08. Muromi-san and the Nice(?) Type
09. Muromi-san and the Secret Advanced Civilization
10. Muromi-san Worldwide
11. Muromi-san and the Chill
12. Muromi-san and Different Forms of Love
12. The Years Go by Muromi-san

Скриншоты

Подробные тех. данные

General
Unique ID : 253034967140437942315040222296897675417 (0xBE5CC313B212AFC5BD50100DE46EE099)
Complete name : ***\Namiuchigiwa no Muromi-san [BD] [720p]\[=^_^=] Namiuchigiwa no Muromi-san ep.01 [BD720 x264 Vorbis].mkv
Format : Matroska
Format version : Version 4 / Version 2
File size : 336 MiB
Duration : 13mn 36s
Overall bit rate mode : Variable
Overall bit rate : 3 458 Kbps
Encoded date : UTC 2013-10-26 18:59:51
Writing application : mkvmerge v6.5.0 ('Isn't she lovely') built on Oct 20 2013 12:50:05
Writing library : libebml v1.3.0 + libmatroska v1.4.1
Video
ID : 1
Format : AVC
Format/Info : Advanced Video Codec
Format profile : High [email protected]
Format settings, CABAC : Yes
Format settings, ReFrames : 6 frames
Codec ID : V_MPEG4/ISO/AVC
Duration : 13mn 36s
Bit rate : 3 069 Kbps
Width : 1 280 pixels
Height : 720 pixels
Display aspect ratio : 16:9
Frame rate mode : Constant
Frame rate : 23.976 fps
Color space : YUV
Chroma subsampling : 4:2:0
Bit depth : 10 bits
Scan type : Progressive
Bits/(Pixel*Frame) : 0.139
Stream size : 299 MiB (89%)
Title : Namiuchigiwa no Muromi-san ep.01 «Muromi-san on the Brink»
Writing library : x264 core 133 r2334 a3ac64b
Encoding settings : cabac=1 / ref=6 / deblock=1:-2:-2 / analyse=0x3:0x113 / me=umh / subme=9 / psy=1 / psy_rd=0.90:0.00 / mixed_ref=1 / me_range=32 / chroma_me=1 / trellis=2 / 8x8dct=1 / cqm=0 / deadzone=21,11 / fast_pskip=0 / chroma_qp_offset=-2 / threads=9 / lookahead_threads=2 / sliced_threads=0 / nr=0 / decimate=0 / interlaced=0 / bluray_compat=0 / constrained_intra=0 / bframes=10 / b_pyramid=2 / b_adapt=2 / b_bias=0 / direct=1 / weightb=1 / open_gop=0 / weightp=2 / keyint=240 / keyint_min=24 / scenecut=40 / intra_refresh=0 / rc=crf / mbtree=0 / crf=16.0 / qcomp=0.70 / qpmin=0 / qpmax=81 / qpstep=4 / ip_ratio=1.40 / pb_ratio=1.30 / aq=1:0.80
Default : Yes
Forced : No
Color primaries : BT.709
Transfer characteristics : BT.709
Matrix coefficients : BT.709
Audio
ID : 2
Format : Vorbis
Format settings, Floor : 1
Codec ID : A_VORBIS
Duration : 13mn 36s
Bit rate mode : Variable
Bit rate : 320 Kbps
Channel count : 2 channels
Sampling rate : 48.0 KHz
Compression mode : Lossy
Stream size : 31.1 MiB (9%)
Writing library : libVorbis (Schaufenugget) (20101101 (Schaufenugget))
Language : Japanese
Default : Yes
Forced : No

Создавать темы 06-Апр-2014 07:47

[Профиль]  [ЛС] 

AZIZ97

Стаж: 5 лет 1 месяц

Сообщений: 199

Симпатии: 22

автор как вам аниме, можете написать ваши впечатления о нем стоит ли качать

Создавать темы 06-Апр-2014 12:23

[Профиль]  [ЛС] 

SNIL

Стаж: 5 лет 9 месяцев

Сообщений: 2624

Симпатии: 341

AZIZ97, Просто вынос мозга) (советую глянуть!)

Создавать темы 06-Апр-2014 12:57

[Профиль]  [ЛС] 

AZIZ97

Стаж: 5 лет 1 месяц

Сообщений: 199

Симпатии: 22

807948AZIZ97, Просто вынос мозга) (советую глянуть!)
спасибо,а вы не знаете продолжения монстра за соседней будет ли?

Создавать темы 06-Апр-2014 13:45

[Профиль]  [ЛС] 

Alex_38

Стаж: 5 лет 7 месяцев

Сообщений: 336

Симпатии: 37

AZIZ97, продолжение не анонсировалось

Создавать темы 06-Апр-2014 14:32

[Профиль]  [ЛС] 

AZIZ97

Стаж: 5 лет 1 месяц

Сообщений: 199

Симпатии: 22

808002AZIZ97, продолжение не анонсировалось
как так аниме реально стоящее и на самом интересном кончилось как жаль

Создавать темы 06-Апр-2014 16:21

[Профиль]  [ЛС] 

MeiDoCorpse ®

Стаж: 4 года 5 месяцев

Сообщений: 222

Симпатии: 14

AZIZ97, мне понравилось, и потраченного времени не жалею, более того, не отказался бы от продолжения. Сериал весьма позитивный, с приятной динамичной анимацией, хорошим юмором, веселыми персонажами.
Вообщем, для поднятия настроения самое то.

Создавать темы 07-Апр-2014 17:43

[Профиль]  [ЛС] 

AZIZ97

Стаж: 5 лет 1 месяц

Сообщений: 199

Симпатии: 22

808575AZIZ97, мне понравилось, и потраченного времени не жалею, более того, не отказался бы от продолжения. Сериал весьма позитивный, с приятной динамичной анимацией, хорошим юмором, веселыми персонажами.
Вообщем, для поднятия настроения самое то.
где-то читал что в манге продолжение есть но мангу найти не смог (

Создавать темы 11-Апр-2014 13:52

[Профиль]  [ЛС] 
Показать сообщения:    
Ответить на тему

Текущее время: 22-Окт 00:37

Часовой пояс: UTC + 5



Вы не можете начинать темы
Вы не можете отвечать на сообщения
Вы не можете редактировать свои сообщения
Вы не можете удалять свои сообщения
Вы не можете голосовать в опросах
Вы не можете прикреплять файлы к сообщениям
Вы не можете скачивать файлы