Кривые стрелы / Crooked Arrows (Стив Рэш ) (2012 г., Драма, Спорт, HDRip) P2

Ответить на тему
 

Suxrob89 ®

Стаж: 7 лет 4 месяца

Сообщений: 933

Симпатии: 564

-Кривые стрелы / Crooked Arrows-«Join the tribe»- Год выпуска: 2012
Производство: США | Sports Studio
Жанр: Драма, Спорт
Перевод: Двуголосый закадровый, профессиональный [студия Elrom]
Субтитры: Отсутствуют
Продолжительность: 01:45:04-Дата мировой премьеры: 18 мая 2012 (США, Ограниченный прокат)-Режиссер: Стив Рэш
Продюсеры: Дж. Тодд Харрис, Адам Лефф, Митчелл Пек
Актеры: Брэндон Рут, Джил Бирмингем, Кристал Аллен, Челси Рикеттс, Мэттью Эриксен, Том Кемп, Лонни Фармер, Майкл Хадсон, Синди Лентол, Дэннис Амбрис, Келби Акин, Джина Филд, Джек Вандервелд, Роберт Коффи, Майк Ханделман, Тайлер Хилл, Аарон Принтап, Коуди Суза ...-Описание фильма:
В центре фильма — 30-летний мужчина смешанных кровей, который должен на время отложить свои мечты о строительстве казино, чтобы заняться подготовкой индейской школьной команды по лакроссу.- -Качество: HDRip
Формат: AVI
Видео: Xvid, 1585 Кбит/сек, 720 x 400
Аудио #1: AC3 192 Кбит/сек (2ch), 48,0 КГц, 16 бит [Русский, DVO «ст. Elrom»]
Аудио #2: AC3 192 Кбит/сек (2ch), 48,0 КГц, 16 бит [Английский]

Media info

Полное имя                               : F:\Krivye.Strely.2012.P2.HDRip.avi
Формат                                   : AVI
Формат/Информация                        : Audio Video Interleave
Размер файла                             : 1,46 Гбайт
Продолжительность                        : 1 ч. 45 м.
Общий поток                              : 1983 Кбит/сек
Название фильма                          : Krivye.Strely.2012
Формат оригинала/Распространитель        : Crooked.Arrows.2012.1080p.BluRay.x264-PSYCHD.mkv
Жанр                                     : Sport
Правообладатель                          : 25KADR
Примечание                               : DVO (Elrom studio)
Видео
Идентификатор                            : 0
Формат                                   : MPEG-4 Visual
Профиль формата                          : Advanced [email protected]
Параметр BVOP формата                    : 2
Параметр QPel формата                    : Нет
Параметр GMC формата                     : Без точки перехода
Параметр матрицы формата                 : Default (MPEG)
Идентификатор кодека                     : XVID
Идентификатор кодека/Подсказка           : XviD
Продолжительность                        : 1 ч. 45 м.
Битрейт                                  : 1585 Кбит/сек
Ширина                                   : 720 пикселей
Высота                                   : 400 пикселей
Соотношение сторон                       : 16:9
Частота кадров                           : 23,976 кадра/сек
Цветовое пространство                    : YUV
Субдискретизация насыщенности            : 4:2:0
Битовая глубина                          : 8 бит
Тип развёртки                            : Прогрессивная
Метод сжатия                             : С потерями
Бит/(Пиксели*Кадры)                      : 0.229
Размер потока                            : 1,16 Гбайт (80%)
Библиотека кодирования                   : XviD 64
Аудио #1
Идентификатор                            : 1
Формат                                   : AC-3
Формат/Информация                        : Audio Coding 3
Расширение режима                        : CM (complete main)
Параметр Endianness формата              : Big
Идентификатор кодека                     : 2000
Продолжительность                        : 1 ч. 45 м.
Вид битрейта                             : Постоянный
Битрейт                                  : 192 Кбит/сек
Каналы                                   : 2 канала
Расположение каналов                     : Front: L R
Частота                                  : 48,0 КГц
Битовая глубина                          : 16 бит
Метод сжатия                             : С потерями
Задержка видео                           : 320 мс.
Размер потока                            : 144 Мбайт (10%)
Выравнивание                             : Разделение по промежуткам
Продолжительность промежутка             : 42  мс. (1,00 видеокадр)
Время предзагрузки промежутка            : 500  мс.
Язык                                     : Russian
Аудио #2
Идентификатор                            : 2
Формат                                   : AC-3
Формат/Информация                        : Audio Coding 3
Расширение режима                        : CM (complete main)
Параметр Endianness формата              : Big
Идентификатор кодека                     : 2000
Продолжительность                        : 1 ч. 45 м.
Вид битрейта                             : Постоянный
Битрейт                                  : 192 Кбит/сек
Каналы                                   : 2 канала
Расположение каналов                     : Front: L R
Частота                                  : 48,0 КГц
Битовая глубина                          : 16 бит
Метод сжатия                             : С потерями
Задержка видео                           : 320 мс.
Размер потока                            : 144 Мбайт (10%)
Выравнивание                             : Разделение по промежуткам
Продолжительность промежутка             : 42  мс. (1,00 видеокадр)
Время предзагрузки промежутка            : 500  мс.

Скриншоты

Создавать темы 06-Апр-2014 18:33

[Профиль]  [ЛС] 
Показать сообщения:    
Ответить на тему

Текущее время: 15-Дек 17:20

Часовой пояс: UTC + 5



Вы не можете начинать темы
Вы не можете отвечать на сообщения
Вы не можете редактировать свои сообщения
Вы не можете удалять свои сообщения
Вы не можете голосовать в опросах
Вы не можете прикреплять файлы к сообщениям
Вы не можете скачивать файлы