Легок на помине (Евгений Абызов) [2014, Россия, комедия, фантастика BDRip 1080p] Original Rus

Ответить на тему
 

yusuf.0088 ®

Стаж: 3 года 10 месяцев

Сообщений: 116

Симпатии: 69

Легок на помине
-- Страна: Россия
Жанр: Комедия, фантастика
Год выпуска: 2014
Продолжительность: 01:22:16--Озвучивание: Оригинал
Cубтитры: нет--Режиссер: Евгений Абызов--В ролях: Гарик Харламов, Кристина Асмус, Екатерина Васильева, Александр Ревва, Татьяна Космачева, Владимир Яглыч, Сергей Сафронов, Юрий Кузнецов, Анна Антонова, Александр Самойленко...--Описание:
Молодому и успешному риелтору Павлу, провернувшему немало полулегальных сделок, необходимо получить доверенность на куплю-продажу старинного поместья. А для этого втереться в доверие к владелице недвижимости, одинокой старушке, доживающей свои дни в родовом гнезде. Разработав хитрый план, риелтор-аферист получает заветную бумагу и начинает готовить поместье к продаже, празднуя очередную победу. Но не тут-то было! В отлаженный ход событий вмешиваются высшие силы. С наступлением темноты с Павлом происходят необъяснимые события — он внезапно начинает перемещаться в пространстве…-- --Качество: BDRip 1080p
Контейнер: MKV
Аудио кодек: AC3
Видео: MPEG-4 AVC / High Profile 4.1 / 1920x800 / 24.00 fps / 6900 kbps
Аудио: Русский / AC3 6ch / 48 KHz / 640 kbps |Original|
Сохранены оригинальные чаптеры как на Blu-Ray

MediaInfo

Формат : Matroska
Версия формата : Version 4 / Version 2
Размер файла : 4,33 Гбайт
Продолжительность : 1 ч. 22 м.
Общий поток : 7536 Кбит/сек
Название фильма : Легок на помине.2014. Yusuf
Дата кодирования : UTC 2014-04-06 07:30:18
Программа кодирования : mkvmerge v6.0.0 ('Coming Up For Air') built on Jan 20 2013 09:52:00
Библиотека кодирования : libebml v1.3.0 + libmatroska v1.4.0
Видео
Идентификатор : 1
Формат : AVC
Формат/Информация : Advanced Video Codec
Профиль формата : [email protected]
Параметр CABAC формата : Да
Параметр ReFrames формата : 5 кадров
Идентификатор кодека : V_MPEG4/ISO/AVC
Продолжительность : 1 ч. 22 м.
Битрейт : 6900 Кбит/сек
Ширина : 1920 пикселей
Высота : 800 пикселей
Соотношение сторон : 2,40:1
Режим частоты кадров : Постоянный
Частота кадров : 24,000 кадра/сек
Цветовое пространство : YUV
Субдискретизация насыщенности : 4:2:0
Битовая глубина : 8 бит
Тип развёртки : Прогрессивная
Бит/(Пиксели*Кадры) : 0.187
Размер потока : 3,88 Гбайт (90%)
Библиотека кодирования : x264 core 125 r2200 999b753
Настройки программы : cabac=1 / ref=5 / deblock=1:-3:-3 / analyse=0x3:0x133 / me=umh / subme=11 / psy=1 / psy_rd=1.00:0.10 / mixed_ref=1 / me_range=32 / chroma_me=1 / trellis=2 / 8x8dct=1 / cqm=0 / deadzone=21,11 / fast_pskip=0 / chroma_qp_offset=-3 / threads=12 / lookahead_threads=2 / sliced_threads=0 / nr=0 / decimate=0 / interlaced=0 / bluray_compat=0 / constrained_intra=0 / bframes=9 / b_pyramid=2 / b_adapt=2 / b_bias=0 / direct=3 / weightb=1 / open_gop=0 / weightp=2 / keyint=240 / keyint_min=23 / scenecut=40 / intra_refresh=0 / rc_lookahead=40 / rc=2pass / mbtree=1 / bitrate=6900 / ratetol=1.0 / qcomp=0.60 / qpmin=0 / qpmax=69 / qpstep=4 / cplxblur=20.0 / qblur=0.5 / ip_ratio=1.40 / aq=1:1.00
Язык : Russian
Default : Да
Forced : Нет
Аудио
Идентификатор : 2
Формат : AC-3
Формат/Информация : Audio Coding 3
Расширение режима : CM (complete main)
Параметр Endianness формата : Big
Идентификатор кодека : A_AC3
Продолжительность : 1 ч. 22 м.
Вид битрейта : Постоянный
Битрейт : 640 Кбит/сек
Каналы : 6 каналов
Расположение каналов : Front: L C R, Side: L R, LFE
Частота : 48,0 КГц
Битовая глубина : 16 бит
Метод сжатия : С потерями
Размер потока : 377 Мбайт (8%)
Язык : Russian
Default : Да
Forced : Нет
Меню
00:00:00.000 : :Chapter 01
00:00:04.000 : :Chapter 02
00:12:24.125 : :Chapter 03
00:20:00.083 : :Chapter 04
00:30:56.875 : :Chapter 05
00:39:17.666 : :Chapter 06
00:48:54.333 : :Chapter 07
01:00:00.000 : :Chapter 08
01:15:38.875 : :Chapter 09

Скриншоты

Создавать темы 06-Апр-2014 23:01

[Профиль]  [ЛС] 
Показать сообщения:    
Ответить на тему

Текущее время: 19-Авг 14:26

Часовой пояс: UTC + 5



Вы не можете начинать темы
Вы не можете отвечать на сообщения
Вы не можете редактировать свои сообщения
Вы не можете удалять свои сообщения
Вы не можете голосовать в опросах
Вы не можете прикреплять файлы к сообщениям
Вы не можете скачивать файлы