Реальная белка / The Nut Job (Питер Лепениотис / Peter Lepeniotis) [2013, США, Канада, Корея Южная, мультфильм, комедия, приключения, семейный, BDRip 720p ] ПМ + Original Eng + Sub eng

Ответить на тему
 

yusuf.0088 ®

Стаж: 3 года 11 месяцев

Сообщений: 116

Симпатии: 69

Реальная белка / The Nut Job«Береги свои орешки!»-- Год выпуска: 2013
Страна: США, Канада, Корея Южная
Жанр: мультфильм, комедия, приключения, семейный
Продолжительность: 01:25:54--Перевод: Профессиональный (многоголосый) BaibaKo
Оригинальная аудиодорожка: Английский
Cубтитры: английские--Режиссер: Питер Лепениотис / Peter Lepeniotis--В ролях: Уилл Арнетт, Брендан Фрейзер, Лиам Нисон, Кэтрин Хейгл, Стивен Лэнг, Майя Рудольф, Джефф Данэм, Гэбриел Иглесиас, Сара Гадон, Джеймс Ранкин--Описание:
Пытаясь выжить в городе, неразлучные друзья — белка Злюк и крысёнок Бадди натыкаются на магазин, до краёв набитый их любимым лакомством — орехами. Чувствуя, что «мечты сбываются», приятели планируют величайшее ограбление в истории грызунов. Но тут совсем некстати нарисовались бедные родственники из парка — прямо 13 друзей арахиса! Однако им всем невдомёк, что магазин орехов — лишь прикрытие для банды грабителей, которые намерены вырыть туннель под банк и подменить мешки с деньгами на мешки с теми самыми орехами.-- --Качество: BDRip 720p
Контейнер: MKV
Аудио кодек: AC3
Видео кодек: AVC
Видео: MPEG-4 AVC / High Profile 4.1 / 1280x694 / 23.976 fps / 3929 kbps
Аудио 1: Русский / AC3 6ch / 48 KHz / 448 kbps |ПМ|
Аудио 2: Английский / AC3 6ch / 48 KHz / 448 kbps |Original|

MediaInfo

Формат : Matroska
Версия формата : Version 4 / Version 2
Размер файла : 2,95 Гбайт
Продолжительность : 1 ч. 25 м.
Общий поток : 4923 Кбит/сек
Название фильма : The.Nut.Job.2014.BDRip.720p.Yusuf
Дата кодирования : UTC 2014-04-06 06:27:12
Программа кодирования : mkvmerge v6.0.0 ('Coming Up For Air') built on Jan 20 2013 09:52:00
Библиотека кодирования : libebml v1.3.0 + libmatroska v1.4.0
Видео
Идентификатор : 1
Формат : AVC
Формат/Информация : Advanced Video Codec
Профиль формата : [email protected]
Параметр CABAC формата : Да
Параметр ReFrames формата : 5 кадров
Идентификатор кодека : V_MPEG4/ISO/AVC
Продолжительность : 1 ч. 25 м.
Битрейт : 3929 Кбит/сек
Ширина : 1280 пикселей
Высота : 694 пикселя
Соотношение сторон : 1,85:1
Режим частоты кадров : Постоянный
Частота кадров : 23,976 кадра/сек
Цветовое пространство : YUV
Субдискретизация насыщенности : 4:2:0
Битовая глубина : 8 бит
Тип развёртки : Прогрессивная
Бит/(Пиксели*Кадры) : 0.184
Размер потока : 2,36 Гбайт (80%)
Язык : English
Default : Да
Forced : Нет
Аудио #1
Идентификатор : 2
Формат : AC-3
Формат/Информация : Audio Coding 3
Расширение режима : CM (complete main)
Параметр Endianness формата : Big
Идентификатор кодека : A_AC3
Продолжительность : 1 ч. 25 м.
Вид битрейта : Постоянный
Битрейт : 448 Кбит/сек
Каналы : 6 каналов
Расположение каналов : Front: L C R, Side: L R, LFE
Частота : 48,0 КГц
Битовая глубина : 16 бит
Метод сжатия : С потерями
Размер потока : 275 Мбайт (9%)
Язык : Russian
Default : Да
Forced : Нет
Аудио #2
Идентификатор : 3
Формат : AC-3
Формат/Информация : Audio Coding 3
Расширение режима : CM (complete main)
Параметр Endianness формата : Big
Идентификатор кодека : A_AC3
Продолжительность : 1 ч. 25 м.
Вид битрейта : Постоянный
Битрейт : 448 Кбит/сек
Каналы : 6 каналов
Расположение каналов : Front: L C R, Side: L R, LFE
Частота : 48,0 КГц
Битовая глубина : 16 бит
Метод сжатия : С потерями
Размер потока : 275 Мбайт (9%)
Язык : English
Default : Нет
Forced : Нет
Текст
Идентификатор : 4
Формат : PGS
Режим смешивания : zlib
Идентификатор кодека : S_HDMV/PGS
Идентификатор кодека/Информация : The same subtitle format used on BDs/HD-DVDs
Язык : English
Default : Нет
Forced : Нет
Меню
00:00:00.000 : en:00:00:00.000
00:02:35.614 : en:00:02:35.614
00:05:24.574 : en:00:05:24.574
00:09:57.430 : en:00:09:57.430
00:14:58.481 : en:00:14:58.481
00:17:30.091 : en:00:17:30.091
00:22:18.837 : en:00:22:18.837
00:27:58.677 : en:00:27:58.677
00:32:01.169 : en:00:32:01.169
00:37:50.435 : en:00:37:50.435
00:40:19.042 : en:00:40:19.042
00:44:56.611 : en:00:44:56.611
00:48:14.266 : en:00:48:14.266
00:53:17.528 : en:00:53:17.528
00:58:14.991 : en:00:58:14.991
01:03:04.072 : en:01:03:04.072
01:08:48.624 : en:01:08:48.624
01:13:57.183 : en:01:13:57.183
01:19:32.059 : en:01:19:32.059
01:23:11.737 : en:01:23:11.737

Скриншоты

Создавать темы 06-Апр-2014 23:06

[Профиль]  [ЛС] 

19ян73

Стаж: 5 лет 9 месяцев

Сообщений: 133

Симпатии: 2

Что-то не видно раздачи!!!

Создавать темы 07-Апр-2014 18:47

[Профиль]  [ЛС] 

19ян73

Стаж: 5 лет 9 месяцев

Сообщений: 133

Симпатии: 2

Что-то не пойму, здесь вообще кто нибудь раздавать собирается?? В шапке 13 сидов а на раздаче о!!!!

Создавать темы 10-Апр-2014 18:51

[Профиль]  [ЛС] 

19ян73

Стаж: 5 лет 9 месяцев

Сообщений: 133

Симпатии: 2

народ,не уходите с раздачи,плиз! 5-7 кило - это разьве раздача???

Создавать темы 11-Апр-2014 22:26

[Профиль]  [ЛС] 

tyupac

Стаж: 5 лет

Сообщений: 30

скорости не хватает ребятя!

Создавать темы 13-Июн-2014 14:46

[Профиль]  [ЛС] 
Показать сообщения:    
Ответить на тему

Текущее время: 19-Сен 23:45

Часовой пояс: UTC + 5



Вы не можете начинать темы
Вы не можете отвечать на сообщения
Вы не можете редактировать свои сообщения
Вы не можете удалять свои сообщения
Вы не можете голосовать в опросах
Вы не можете прикреплять файлы к сообщениям
Вы не можете скачивать файлы