Мачеха / Stepmom (Крис Коламбус / Chris Columbus) [1998 г., драма, комедия, DVDRip]

Ответить на тему
 

S()me()ne ®

Стаж: 3 года 9 месяцев

Сообщений: 26

Симпатии: 3

Мачеха / Stepmom
Год выпуска: 1998
Страна: США
Жанр: драма, комедия
Продолжительность: 02:05:06
Перевод: Профессиональный (многоголосый, закадровый)
Режиссер: Крис Коламбус / Chris Columbus
В ролях: Джулия Робертс, Сьюзен Сарандон, Эд Харрис, Джена Мэлоун, Лиам Эйкен, Линн Уитфилд, Даррел Ларсон, Мэри Луиза Уилсон, Андре Б. Блейк, Рассел Харпер...
Описание: Семейные узы настолько тесно сближают людей, что рано или поздно кто — то оказывается лишним. И в жизни десятилетней Анны и шестилетнего Бена появилась Изабель, любовница их разведенного отца. Она делает все возможное, чтобы завоевать любовь чужих детей. Но Джеки, их настоящая мать, использует весь свой авторитет и влияние, чтобы этого не допустить.
Голос крови оказывается сильнее доброты и обаяния Изабель. Она хотела стать для Анны и Бена искренним другом, но так и осталась мачехой. Однако в тот момент, когда Джеки добилась желаемого, неожиданно выясняется, что она смертельно больна. И вот Изабель, с которой заботливая мать не мыслила жизни своих детей, оказывается тем единственным человеком, без которого их жизнь немыслима…
Качество: DVDRip
Формат: AVI
Видео кодек: XviD
Аудио кодек: AC3
Видео: 720x304 (2.37:1), 23.976 fps, XviD build 50 ~1409 kbps avg, 0.27 bit/pixel
Аудио: 48 kHz, AC3 Dolby Digital, 2/0 (L,R) ch, 256.00 kbps DUB

Скриншоты







MediaInfo

General
Complete name : H:\Macheha.1998.DVDRip.[MVO].avi
Format : AVI
Format/Info : Audio Video Interleave
File size : 1.46 GiB
Duration : 2h 5mn
Overall bit rate : 1 675 Kbps
Writing application : VirtualDubMod 1.5.10.3 | www.virtualdub-fr.org || (build 2550/release)
Writing library : VirtualDubMod build 2550/release
Video
ID : 0
Format : MPEG-4 Visual
Format profile : Advanced [email protected]
Format settings, BVOP : 1
Format settings, QPel : No
Format settings, GMC : No warppoints
Format settings, Matrix : Custom
Codec ID : XVID
Codec ID/Hint : XviD
Duration : 2h 5mn
Bit rate : 1 410 Kbps
Width : 720 pixels
Height : 304 pixels
Display aspect ratio : 2.35:1
Frame rate : 23.976 fps
Color space : YUV
Chroma subsampling : 4:2:0
Bit depth : 8 bits
Scan type : Progressive
Compression mode : Lossy
Bits/(Pixel*Frame) : 0.269
Stream size : 1.23 GiB (84%)
Writing library : XviD 1.2.1 (UTC 2008-12-04)
Audio
ID : 1
Format : AC-3
Format/Info : Audio Coding 3
Mode extension : CM (complete main)
Format settings, Endianness : Big
Codec ID : 2000
Duration : 2h 5mn
Bit rate mode : Constant
Bit rate : 256 Kbps
Channel(s) : 2 channels
Channel positions : Front: L R
Sampling rate : 48.0 KHz
Bit depth : 16 bits
Compression mode : Lossy
Stream size : 229 MiB (15%)
Alignment : Split accross interleaves
Interleave, duration : 42 ms (1.00 video frame)
Interleave, preload duration : 500 ms

Создавать темы 07-Апр-2014 08:55

[Профиль]  [ЛС] 

S()me()ne ®

Стаж: 3 года 9 месяцев

Сообщений: 26

Симпатии: 3

Предпоследний скриншот как реакция на погоду 7-апреля :tz:

Создавать темы 07-Апр-2014 08:55

[Профиль]  [ЛС] 

alina

Стаж: 4 года 6 месяцев

Сообщений: 15

Симпатии: 1

ребяяяят, залейте кто-нибудь российский сериал "Мачеха" плзззз, очень хочется посмотреть

Создавать темы 24-Янв-2015 23:04

[Профиль]  [ЛС] 
Показать сообщения:    
Ответить на тему

Текущее время: 20-Ноя 14:42

Часовой пояс: UTC + 5



Вы не можете начинать темы
Вы не можете отвечать на сообщения
Вы не можете редактировать свои сообщения
Вы не можете удалять свои сообщения
Вы не можете голосовать в опросах
Вы не можете прикреплять файлы к сообщениям
Вы не можете скачивать файлы