Золотая мозаика / Kin`iro Mosaic / Kinmoza! (Танака Мотоки) [TV] [12 из 12] [без хардсаба] [RUS(ext), JAP+SUB] [2013 г., комедия, школа, BDRip] [720p]

Ответить на тему
 

MeiDoCorpse ®

Стаж: 4 года 5 месяцев

Сообщений: 222

Симпатии: 14

Год выпуска: 2013
Страна: Япония
Жанр: комедия, повседневность, школа
Продолжительность: ТВ | 12 эп. по 24 мин.-Режиссер: Танака Мотоки
Автор оригинала: Хара Юй
Студия: Studio Gokumi-Описание:
15-летняя Синобу Омия – обычная японская школьница, что очень любит западную культуру, пускай даже английский не отвечает ей взаимностью. Главная героиня включилась в программу обмена и прожила неделю в британской семье Картлет, где познакомилась со своей ровесницей Элис, застенчивой миниатюрной блондинкой. Учитывая простой и открытый нрав Сино, взаимопонимание наладилось быстро, языковый барьер не помешал девушкам понять друг друга и подружиться. Вот так Элис полюбила Восток, выучила японский, поработала над собой и через год пожаловала в семью Омия с ответным визитом – теперь уже надолго!
Ёко и Ая, школьные подруги Синобу, с удовольствием приняли новенькую в свой круг – и не только из-за роскошных золотых волос, а потому что человек хороший. Ну а для Элис, то есть Алисы, поездка в Японию вообще стала погружением в долгожданную Страну Чудес. Вскоре к четверке подружек присоединилась еще одна златовласка – Карэн Кудзё, малость взбалмошная родственница Элис, которая услышала, что кузина решила учиться в Японии, и тут же переехала сама – так, за компанию. В общем, скучно интернациональному коллективу теперь точно не будет, а зрителям - тем более!
© Hollow, World Art
-Cсылки: Официальная страница || AniDB || World Art || MAL-Качество: BDRip
Энкод: Winter
Контейнер: mkv
Тип видео: Без хардсаба
Наличие линковки: Нет
Видео: x264 (Hi10p), 1280x720, ~2600 Kbps, 23.976 fps
Аудио: Japanese, Vorbis, 48000Hz, ~256 Kbps, 2ch, в составе контейнера
Аудио: Russian, AC3, 48000Hz, ~192 Kbps, 2ch, внешними файлами
  • Одноголосая озвучка от Lizaveta
Субтитры: Russian, ASS, внешними файлами
  • Перевод от Saika_mint & Unnmd
-

Список эпизодов

01. ...in Wonderland
02. Even If I`m Small
03. What Kind of Friends Will I Make?
04. Aya, Nervous in the Rain
05. Together with Onee-chan
06. Golden Alice, Golden Karen
07. Hungry Karen
08. What Day Is Today?
09. Who Isn`t Sleeping?
10. The Wonderful Five
11. Try and Guess How Much I Like You
12. Golden Moment

Скриншоты

Подробные тех. данные

General
Unique ID : 227909682730851556489243524549672831168 (0xAB75CEEA0B07FBD3B6C49A9029DA08C0)
Complete name : E:\Kin-iro Mosaic [BD] [720p]\[Winter] Kin-iro Mosaic 01 [BDrip 1280x720 x264 Vorbis].mkv
Format : Matroska
Format version : Version 2
File size : 529 MiB
Duration : 23mn 37s
Overall bit rate mode : Variable
Overall bit rate : 3 129 Kbps
Encoded date : UTC 2013-10-05 13:16:04
Writing application : mkvmerge v2.9.8 ('C'est le bon') built on Aug 13 2009 12:49:06
Writing library : libebml v0.7.7 + libmatroska v0.8.1
Video
ID : 1
Format : AVC
Format/Info : Advanced Video Codec
Format profile : High [email protected]
Format settings, CABAC : Yes
Format settings, ReFrames : 9 frames
Codec ID : V_MPEG4/ISO/AVC
Duration : 23mn 37s
Bit rate : 2 810 Kbps
Width : 1 280 pixels
Height : 720 pixels
Display aspect ratio : 16:9
Frame rate mode : Constant
Frame rate : 23.976 fps
Color space : YUV
Chroma subsampling : 4:2:0
Bit depth : 10 bits
Scan type : Progressive
Bits/(Pixel*Frame) : 0.127
Stream size : 475 MiB (90%)
Writing library : x264 core 132 r2309 3b1f1f7
Encoding settings : cabac=1 / ref=9 / deblock=1:-2:-2 / analyse=0x3:0x133 / me=umh / subme=9 / psy=1 / psy_rd=0.90:0.00 / mixed_ref=1 / me_range=24 / chroma_me=1 / trellis=2 / 8x8dct=1 / cqm=0 / deadzone=21,11 / fast_pskip=1 / chroma_qp_offset=-2 / threads=6 / lookahead_threads=1 / sliced_threads=0 / nr=0 / decimate=0 / interlaced=0 / bluray_compat=0 / constrained_intra=0 / bframes=8 / b_pyramid=2 / b_adapt=2 / b_bias=0 / direct=1 / weightb=1 / open_gop=0 / weightp=2 / keyint=250 / keyint_min=23 / scenecut=40 / intra_refresh=0 / rc=crf / mbtree=0 / crf=14.8 / qcomp=0.70 / qpmin=9 / qpmax=40 / qpstep=4 / ip_ratio=1.40 / pb_ratio=1.30 / aq=1:0.90 / zones=27574,29598,b=1.4
Default : No
Forced : No
Audio
ID : 2
Format : Vorbis
Format settings, Floor : 1
Codec ID : A_VORBIS
Duration : 23mn 37s
Bit rate mode : Variable
Bit rate : 256 Kbps
Channel count : 2 channels
Sampling rate : 48.0 KHz
Compression mode : Lossy
Stream size : 43.2 MiB (8%)
Writing library : libVorbis (Schaufenugget) (20101101 (Schaufenugget))
Language : Japanese
Default : Yes
Forced : No

Создавать темы 07-Апр-2014 21:32

[Профиль]  [ЛС] 

copa

Стаж: 3 года 9 месяцев

Сообщений: 8

когда будет раздача?

Создавать темы 07-Апр-2014 22:06

[Профиль]  [ЛС] 

LikeSmile

Стаж: 4 года 5 месяцев

Сообщений: 298

Симпатии: 48

Прям мысли читаешь как-будто) Пасиб Рустам)

Создавать темы 08-Апр-2014 10:26

[Профиль]  [ЛС] 
Показать сообщения:    
Ответить на тему

Текущее время: 18-Окт 01:45

Часовой пояс: UTC + 5



Вы не можете начинать темы
Вы не можете отвечать на сообщения
Вы не можете редактировать свои сообщения
Вы не можете удалять свои сообщения
Вы не можете голосовать в опросах
Вы не можете прикреплять файлы к сообщениям
Вы не можете скачивать файлы