Крутые чуваки / Bad Asses (Крэйг Мосс) [2014, Боевик, HDRip ]

Ответить на тему
 

Slapper ®

Стаж: 3 года 11 месяцев

Сообщений: 2193

Симпатии: 213

Крутые чуваки / Bad Asses-- Год выпуска: 2014
Страна: США
Жанр: Боевик
Продолжительность: 01:30:40
Перевод: Любительский (одноголосый) [datynet]
-В ролях: Дэнни Трехо, Дэнни Гловер, Эндрю Дивофф, Жаклин Обрадорс, Софи Ди, Данте Баско, Джонатан Липники, Чарли Карвер, Сара Дюмон, Игнасио Серричио-Режиссёр: Крэйг Мосс-Описание: Френк Вега возвращается, что бы надрать задницы наркоторговцам, заполонивших Лос-Анджелес. И в этом непростом деле ему поможет верный друг Берни!-Качество: HDRip
Формат: AC3
Видео кодек: XviD
Аудио кодек: MP3/ AC3
Видео: -XviD, 1706 kb/s, 720x400 , 23.976 fps
Аудио: 1: Русский / MP3 2ch / 44.1 KHz / 192 kbps |Дубляж|
Аудио: 2: Английский / Dolby AC3 6ch / 48 KHz / 384 kbps |Original|
--

MediaInfo

Format : AVI
Format/Info : Audio Video Interleave
File size : 1.01 GiB
Duration : 1h 30mn
Overall bit rate : 1 602 Kbps
Writing application : VirtualDubMod 1.5.10.3 | www.virtualdub-fr.org || (build 2550/release)
Writing library : VirtualDubMod build 2550/release
Copyright : SaM
Video
ID : 0
Format : MPEG-4 Visual
Format profile : Advanced [email protected]
Format settings, BVOP : Yes
Format settings, QPel : No
Format settings, GMC : No warppoints
Format settings, Matrix : Default (H.263)
Codec ID : XVID
Codec ID/Hint : XviD
Duration : 1h 30mn
Bit rate : 952 Kbps
Width : 720 pixels
Height : 400 pixels
Display aspect ratio : 16:9
Frame rate : 23.976 fps
Color space : YUV
Chroma subsampling : 4:2:0
Bit depth : 8 bits
Scan type : Progressive
Compression mode : Lossy
Bits/(Pixel*Frame) : 0.138
Stream size : 618 MiB (59%)
Writing library : XviD 64
Audio #1
ID : 1
Format : MPEG Audio
Format version : Version 1
Format profile : Layer 3
Codec ID : 55
Codec ID/Hint : MP3
Duration : 1h 30mn
Bit rate mode : Constant
Bit rate : 192 Kbps
Channel(s) : 2 channels
Sampling rate : 44.1 KHz
Compression mode : Lossy
Stream size : 125 MiB (12%)
Alignment : Split accross interleaves
Audio #2
ID : 2
Format : AC-3
Format/Info : Audio Coding 3
Mode extension : CM (complete main)
Format settings, Endianness : Big
Codec ID : 2000
Duration : 1h 30mn
Bit rate mode : Constant
Bit rate : 384 Kbps
Channel(s) : 6 channels
Channel positions : Front: L C R, Side: L R, LFE
Sampling rate : 48.0 KHz
Bit depth : 16 bits
Compression mode : Lossy
Stream size : 249 MiB (24%)
Alignment : Split accross interleaves

Скриншоты

Создавать темы 08-Апр-2014 19:30

[Профиль]  [ЛС] 

mdima

Стаж: 8 лет 8 месяцев

Сообщений: 29

это продолжение старой части? я просто год назад смотрел bad ass крутой чувак это продолжение?

Создавать темы 08-Апр-2014 22:13

[Профиль]  [ЛС] 

agroplyus

Стаж: 4 года 5 месяцев

Сообщений: 7

Симпатии: 2

раздавай тогда друг дай скорости

Создавать темы 08-Апр-2014 22:28

[Профиль]  [ЛС] 

Kakcam

Стаж: 6 лет 10 месяцев

Сообщений: 137

Симпатии: 7

а где марк от имдб ??????

Создавать темы 08-Апр-2014 23:03

[Профиль]  [ЛС] 

Xakker_xxx

Стаж: 5 лет 6 месяцев

Сообщений: 53

Симпатии: 1

Этот фильм 2013 года?

Создавать темы 09-Апр-2014 08:10

[Профиль]  [ЛС] 

nurbek1795

Стаж: 4 года 4 месяца

Сообщений: 1

мне быстрота выдайте эагрузив получению

Создавать темы 09-Апр-2014 11:46

[Профиль]  [ЛС] 

jaska-3d

Стаж: 5 лет 10 месяцев

Сообщений: 250

Симпатии: 25

а это точно фильм 2014 года ?

Создавать темы 28-Апр-2014 21:49

[Профиль]  [ЛС] 

Slapper ®

Стаж: 3 года 11 месяцев

Сообщений: 2193

Симпатии: 213

jaska-3d, да

Создавать темы 28-Апр-2014 21:51

[Профиль]  [ЛС] 

maggot

Стаж: 4 года 11 месяцев

Сообщений: 2

Симпатии: 1

озвучка на англ... :(

Создавать темы 01-Май-2014 14:57

[Профиль]  [ЛС] 

Slapper ®

Стаж: 3 года 11 месяцев

Сообщений: 2193

Симпатии: 213

maggot, 2 звук дорожки, смените ее будет вам и русская

Создавать темы 01-Май-2014 15:11

[Профиль]  [ЛС] 

TroubleMakeR

Стаж: 7 лет 2 месяца

Сообщений: 87

Симпатии: 1

Старика разве не убили в 1 части?

Создавать темы 03-Май-2014 12:36

[Профиль]  [ЛС] 

DeathStep

Стаж: 4 года 9 месяцев

Сообщений: 24

Денни с бородой на Ханумана похоже))

Создавать темы 05-Май-2014 22:04

[Профиль]  [ЛС] 
Показать сообщения:    
Ответить на тему

Текущее время: 24-Окт 01:54

Часовой пояс: UTC + 5



Вы не можете начинать темы
Вы не можете отвечать на сообщения
Вы не можете редактировать свои сообщения
Вы не можете удалять свои сообщения
Вы не можете голосовать в опросах
Вы не можете прикреплять файлы к сообщениям
Вы не можете скачивать файлы