Заморозка / Freezing (Ватанабэ Такаси) [TV] [12 из 12] [без хардсаба] [RUS(ext), JAP+SUB] [Special] [6 из 6] [2011 г., приключения, мистика, этти, BDRip] [720p]

Ответить на тему
 

LikeSmile ®

Стаж: 4 года 7 месяцев

Сообщений: 298

Симпатии: 48

- Год выпуска: 2011
Страна: Япония
Жанр: приключения, мистика, этти
Продолжительность: ТВ (12 эп.+ 6 спэшлов), 25 мин.
Выпуск: с 08.01.2011 по 07.04.2011--Перевод:
  • русские субтитры от Hollow & Obelikx (полные/вспомогательные)
-Озвучка:
  • одноголосая (жен.) от Persona99 [1-12 серии]
  • двухголосая (муж./жен.) от Kedra & Sashi Sutangu [1-12 серии]
  • двухголосая (муж./жен.) от Eladiel & Lupin [6 спэшлов]
--Режиссер: Ватанабэ Такаси
Автор оригинала: Им Дал-Ён
Студия: A.C.G.T.--Дополнительную информацию можете найти: AniDB || WA || MAL--Описание:
В недалеком, но мрачном будущем на Землю начинают нашествие ангелоподобные пришельцы Нова. Сражаться с ними могут лишь генетически модифицированные девушки, которых зовут Пандорами. Надежды человечества тренируются в военной академии, где кандидаток со всего мира учат силой мысли вызывать оружие и доспехи, а потом применять их на практике. Разумеется, порядки там суровые, иерархия жесткая, и агрессивные юные особы постоянно бьются между собой, чтобы получить порядковый номер повыше. Таков женский коллектив, где многим важнее подставить ненавистную соперницу, а не мир спасти. Кроме того, сила и репутация дают Пандоре дополнительные привилегии.
Дело в том, что для формирования полноценной боевой единицы воительницы должны заключить контракт с парнем, получающим способность к «заморозке» - остановке противника, что дает шанс победить Нова. Для контракта нужны привязанность, эмоциональное единение, потому шансы ярких и привлекательных девушек всегда выше. Проблема же в том, что первая ученица, красавица Сателлайзер Л. Бриджет, никого к себе не подпускает, заработав кличку Неприкасаемая Королева. И тут внезапно на нее в прямом смысле слова бросается новичок по имени Кадзуя Аой. Что это – суицид или завязка сюжета? А вы еще сомневаетесь?!
© Hollow, World Art--Качество: BDRip
Энкод: Yousei-raws | #[email protected] rizon. net
Тип видео: без хардсаба
Формат: mkv
Видео: x264 (Hi10p), 1280x720, ~4100 Kbps, 23.976 fps
Аудио JAP: Vorbis, 48000Hz, 256 Kbps, 2ch
Аудио RUS #1: AC3, 48000Hz, 192 Kbps, 2ch (внешними файлами)
Аудио RUS #2: AAC, 48000Hz, 192 Kbps, 2ch (внешними файлами)
Аудио RUS #3: AC3, 48000Hz, 192 Kbps, 2ch (внешними файлами)--

Отличия

https://tas-ix.net/viewtopic.php?t=40217
- BDRip
https://tas-ix.net/viewtopic.php?t=40344
- Улучшенное качество
--

Список эпизодов

01. «Неприкосновенная королева»
02. «Режим одарённой»
03. «Ускоряющий ход»
04. «Режим вихря»
05. «Её зовут Лана Линьчэнь»
06. «Хитрость»
07. «Наказание»
08. «Королева пандор»
09. «Сверхбыстрая из восточной»
10. «Обличие новы»
11. «Внезапное нападение на источник жизни»
12. «Сателайза против пандоры»
SP1. «I Want to Touch Her - Satellizer, The Girl with Glasses»
SP2. «Plenty of Secrets - The First Room Invitation»
SP3. «Someone`s Going to See - Overly Extreme Physical»
SP4. «The Genetics Swim Meet - There Are Nip Slips Too»
SP5. «Don`t Look - The Pandora`s Bare Change of Clothes»
SP6. «Freezing Gone Wild - Sighs-a-plenty for the Pandoras»
----

MediaInfo

ТВ-сериал

General
Unique ID                                : 183532499243311506764899016695331408503 (0x8A1312D7D94E8019B5ACFF7EFA0FCA77)
Complete name                            : G:\Anime [Скачано с торрентов]\Freezing [BD] [720p]\[Yousei-raws] Freezing 01 [BDrip 1280x720 x264 Vorbis].mkv
Format                                   : Matroska
Format version                           : Version 2
File size                                : 838 MiB
Duration                                 : 23mn 41s
Overall bit rate mode                    : Variable
Overall bit rate                         : 4 942 Kbps
Encoded date                             : UTC 2011-12-26 08:57:34
Writing application                      : mkvmerge v2.9.7 ('Tenderness') built on Jul  1 2009 18:43:35
Writing library                          : libebml v0.7.7 + libmatroska v0.8.1
Video
ID                                       : 1
Format                                   : AVC
Format/Info                              : Advanced Video Codec
Format profile                           : High [email protected]
Format settings, CABAC                   : Yes
Format settings, ReFrames                : 9 frames
Codec ID                                 : V_MPEG4/ISO/AVC
Duration                                 : 23mn 41s
Bit rate                                 : 4 588 Kbps
Width                                    : 1 280 pixels
Height                                   : 720 pixels
Display aspect ratio                     : 16:9
Frame rate mode                          : Constant
Frame rate                               : 23.976 fps
Color space                              : YUV
Chroma subsampling                       : 4:2:0
Bit depth                                : 10 bits
Scan type                                : Progressive
Bits/(Pixel*Frame)                       : 0.208
Stream size                              : 778 MiB (93%)
Writing library                          : x264 core 118 r2085+614 d1cc25d
Encoding settings                        : cabac=1 / ref=9 / deblock=1:-2:-2 / analyse=0x3:0x133 / me=umh / subme=9 / psy=1 / fade_compensate=0.00 / psy_rd=0.90:0.00 / mixed_ref=1 / me_range=24 / chroma_me=1 / trellis=2 / 8x8dct=1 / cqm=0 / deadzone=21,11 / fast_pskip=1 / chroma_qp_offset=-2 / threads=6 / sliced_threads=0 / nr=0 / decimate=0 / interlaced=0 / bluray_compat=0 / constrained_intra=0 / fgo=0 / bframes=8 / b_pyramid=2 / b_adapt=2 / b_bias=0 / direct=1 / weightb=1 / open_gop=0 / weightp=2 / keyint=250 / keyint_min=23 / scenecut=40 / intra_refresh=0 / rc=crf / mbtree=0 / crf=16.5 / qcomp=0.70 / qpmin=9 / qpmax=38 / qpstep=4 / ip_ratio=1.40 / pb_ratio=1.30 / aq=1:0.90
Default                                  : Yes
Forced                                   : No
Audio
ID                                       : 2
Format                                   : Vorbis
Format settings, Floor                   : 1
Codec ID                                 : A_VORBIS
Duration                                 : 23mn 41s
Bit rate mode                            : Variable
Bit rate                                 : 256 Kbps
Channel(s)                               : 2 channels
Sampling rate                            : 48.0 KHz
Compression mode                         : Lossy
Stream size                              : 43.4 MiB (5%)
Writing library                          : libVorbis (Schaufenugget) (20101101 (Schaufenugget))
Language                                 : Japanese
Default                                  : Yes
Forced                                   : No

Special

General
Unique ID                                : 253596883901830222941122019128108875443 (0xBEC8FBB6561EF77FA41A4994C20F7EB3)
Complete name                            : G:\Anime [Скачано с торрентов]\Freezing [BD] [720p]\Specials\[Yousei-raws] Freezing (Hajikechau! Doki-doki Trouble 1) [BDrip 1280x720 x264 Vorbis].mkv
Format                                   : Matroska
Format version                           : Version 2
File size                                : 98.0 MiB
Duration                                 : 3mn 7s
Overall bit rate mode                    : Variable
Overall bit rate                         : 4 393 Kbps
Encoded date                             : UTC 2011-12-16 18:18:21
Writing application                      : mkvmerge v2.9.7 ('Tenderness') built on Jul  1 2009 18:43:35
Writing library                          : libebml v0.7.7 + libmatroska v0.8.1
Video
ID                                       : 1
Format                                   : AVC
Format/Info                              : Advanced Video Codec
Format profile                           : High [email protected]
Format settings, CABAC                   : Yes
Format settings, ReFrames                : 9 frames
Codec ID                                 : V_MPEG4/ISO/AVC
Duration                                 : 3mn 7s
Bit rate                                 : 4 050 Kbps
Width                                    : 1 280 pixels
Height                                   : 720 pixels
Display aspect ratio                     : 16:9
Frame rate mode                          : Constant
Frame rate                               : 23.976 fps
Color space                              : YUV
Chroma subsampling                       : 4:2:0
Bit depth                                : 10 bits
Scan type                                : Progressive
Bits/(Pixel*Frame)                       : 0.183
Stream size                              : 90.4 MiB (92%)
Writing library                          : x264 core 118 r2085+614 d1cc25d
Encoding settings                        : cabac=1 / ref=9 / deblock=1:-2:-2 / analyse=0x3:0x133 / me=umh / subme=9 / psy=1 / fade_compensate=0.00 / psy_rd=0.90:0.00 / mixed_ref=1 / me_range=24 / chroma_me=1 / trellis=2 / 8x8dct=1 / cqm=0 / deadzone=21,11 / fast_pskip=1 / chroma_qp_offset=-2 / threads=6 / sliced_threads=0 / nr=0 / decimate=0 / interlaced=0 / bluray_compat=0 / constrained_intra=0 / fgo=0 / bframes=8 / b_pyramid=2 / b_adapt=2 / b_bias=0 / direct=1 / weightb=1 / open_gop=0 / weightp=2 / keyint=250 / keyint_min=23 / scenecut=40 / intra_refresh=0 / rc=crf / mbtree=0 / crf=16.5 / qcomp=0.70 / qpmin=9 / qpmax=38 / qpstep=4 / ip_ratio=1.40 / pb_ratio=1.30 / aq=1:0.90
Default                                  : Yes
Forced                                   : No
Audio
ID                                       : 2
Format                                   : Vorbis
Format settings, Floor                   : 1
Codec ID                                 : A_VORBIS
Duration                                 : 3mn 7s
Bit rate mode                            : Variable
Bit rate                                 : 256 Kbps
Channel(s)                               : 2 channels
Sampling rate                            : 48.0 KHz
Compression mode                         : Lossy
Stream size                              : 5.71 MiB (6%)
Writing library                          : libVorbis (Schaufenugget) (20101101 (Schaufenugget))
Language                                 : Japanese
Default                                  : Yes
Forced                                   : No
--За файлы спасибо MeiDoCorpse--

Создавать темы 09-Апр-2014 15:17

[Профиль]  [ЛС] 

LikeSmile ®

Стаж: 4 года 7 месяцев

Сообщений: 298

Симпатии: 48

Не качает? Добавь этот ip:port - [2001:0:5e9e:3186:bc:d8e3:c12e:6399]:50786
Не ограничивайте отдачу, пожж...


Последний раз редактировалось: LikeSmile (2014-05-27 09:57), всего редактировалось 11 раз(а)

Создавать темы 09-Апр-2014 16:14

[Профиль]  [ЛС] 

LikeSmile ®

Стаж: 4 года 7 месяцев

Сообщений: 298

Симпатии: 48

Next раздача (когда эту все скакчают) будет High School DxD [BD] [720p]

Создавать темы 10-Апр-2014 22:27

[Профиль]  [ЛС] 

rikimaruxxx

Стаж: 5 лет 5 месяцев

Сообщений: 254

Симпатии: 42

лучше залей канон bd от KyotoAnimation пожалуйста

Создавать темы 10-Апр-2014 23:10

[Профиль]  [ЛС] 

LikeSmile ®

Стаж: 4 года 7 месяцев

Сообщений: 298

Симпатии: 48

810353лучше залей канон bd от KyotoAnimation пожалуйста
Канон... Надо бы поискать его на харде

Создавать темы 11-Апр-2014 08:31

[Профиль]  [ЛС] 

rikimaruxxx

Стаж: 5 лет 5 месяцев

Сообщений: 254

Симпатии: 42

LikeSmile, всё нашел больше не надо. . .

Создавать темы 11-Апр-2014 12:18

[Профиль]  [ЛС] 

LikeSmile ®

Стаж: 4 года 7 месяцев

Сообщений: 298

Симпатии: 48

RIKIMARUXXX, ну окай .-.
п.с. а так нашел "Размер: 11 ГБ"

Создавать темы 11-Апр-2014 19:35

[Профиль]  [ЛС] 

darkus

Стаж: 4 года 4 месяца

Сообщений: 30

Симпатии: 2

LikeSmile ® А для меня не зальёшь ? очь прошу !=)

Создавать темы 02-Дек-2014 17:36

[Профиль]  [ЛС] 
Показать сообщения:    
Ответить на тему

Текущее время: 17-Дек 11:14

Часовой пояс: UTC + 5



Вы не можете начинать темы
Вы не можете отвечать на сообщения
Вы не можете редактировать свои сообщения
Вы не можете удалять свои сообщения
Вы не можете голосовать в опросах
Вы не можете прикреплять файлы к сообщениям
Вы не можете скачивать файлы