Убить Сталина / Полная версия / Серии: 1-8 из 8 (Сергей Гинзбург) [2013 г., Шпионский детектив / Военно приключенческий / История / Сага, SATRip]

Ответить на тему
 

БЕГИ 1996 ®

Стаж: 4 года 1 месяц

Сообщений: 17

Симпатии: 15

Убить Сталина / Полная версия / Серии: 1-8 из 8
Год выпуска: 2013
Страна: Россия, StarMedia
Жанр: Шпионский детектив / Военно приключенческий / История / Сага
Продолжительность: 8 серии по 00:48:00 по 00:51:00 минут
Перевод: Не требуется
Режиссер: Сергей Гинзбург
Сценарий: Игорь Тер-Карапетов
Продюсер: Влад Ряшин, Андрей Анохин
-
Премьера в мире: 4 ноября 2013
-
В ролях: Александр Домогаров, Михаил Пореченков, Екатерина Вилкова, Павел Трубинер, Андрей Гусев, Василий Мищенко, Игорь Хрипунов, Ярослав Жалнин, Игорь Арташонов, Владимир Юматов, Азамат Нигманов, Адам Булгучев, Дмитрий Гудочкин, Анатолий Дзиваев, Николай Шрайбер, Дмитрий Лавров (III), Алексей Огурцов, Денис Константинов, Евгений Миллер, Максим Лагашкин, Николай Зазуля, Илья Ермолов, Георгий Славский, Александр Никольский (II), Олег Малышев, Руслан Искандаров, Роман Синицын, Артём Федотов, Алла Малкова, Евгений Смирнов-Иваницкий, Валерий Бассэль
Описание: Осень 1941-го года. Немецкие полчища докатились до Москвы. Здесь их сдерживают героические усилия советских воинов и рано наступившая морозная зима. Но положение на фронте очень тяжелое, врага едва удается сдерживать. А руководство рейха решает нанести сокрушительный и коварный удар – убить Сталина. Осуществить операцию поручено специальной группе офицеров из команды «Абвера» «Бранденбург-800», которой помогает глубоко внедренный в нашу армию фашистский агент. На пути врага встают умные и смелые сотрудники МГБ СССР…
-
Качество: SATRip
Формат: AVI (Audio Video Interleave) MPEG-4 Visual
Видео кодек: XVID
Аудио кодек: MP3 (MPEG Audio Layer 3.99r)
Видео: Xvid 720x400 25 fps 800 kbps
Аудио: MP3 48000 Hz Stereo 192 kbps

Медиа инфо

Видео
Идентификатор : 0
Формат : MPEG-4 Visual
Профиль формата : Advanced [email protected]
Параметр BVOP формата : 1
Параметр QPel формата : Нет
Параметр GMC формата : Без точки перехода
Параметр матрицы формата : Default (H.263)
Режим смешивания : Сжатый битовый поток
Идентификатор кодека : XVID
Идентификатор кодека/Подсказка : XviD
Битрейт : 800 Кбит/сек
Ширина : 720 пикселей
Высота : 400 пикселей
Соотношение сторон : 16:9
Частота кадров : 25,000 кадров/сек
Цветовое пространство : YUV
Субдискретизация насыщенности : 4:2:0
Битовая глубина : 8 бит
Тип развёртки : Прогрессивная
Метод сжатия : С потерями
Бит/(Пиксели*Кадры) : 0.111
Размер потока : 277 Мбайт (80%)
Библиотека кодирования : XviD 62
Аудио
Идентификатор : 1
Формат : MPEG Audio
Версия формата : Version 1
Профиль формата : Layer 3
Идентификатор кодека : 55
Идентификатор кодека/Подсказка : MP3
Вид битрейта : Постоянный
Битрейт : 192 Кбит/сек
Каналы : 2 канала
Частота : 48,0 КГц
Метод сжатия : С потерями
Размер потока : 66,5 Мбайт (19%)
Выравнивание : Соединение по промежуткам
Продолжительность промежутка : 40 мс. (1,00 видеокадр)
Время предзагрузки промежутка : 504 мс.
Библиотека кодирования : LAME3.99r
Настройки программы : -m s -V 4 -q 0 -lowpass 18.6 -b 192

Скриншоты








Последний раз редактировалось: БЕГИ 1996 (2014-04-09 16:39), всего редактировалось 1 раз

Создавать темы 09-Апр-2014 16:14

[Профиль]  [ЛС] 

Топик был перенесен из форума CamRip\Telesync\SATRip\TVRip в форум Российские сериалы
Mixer City

Создавать темы 09-Апр-2014 16:25

 

muha14

Стаж: 3 года 8 месяцев

Сообщений: 8

раздачу дайтееее

Создавать темы 16-Апр-2014 15:51

[Профиль]  [ЛС] 

Adkham

Стаж: 4 года 7 месяцев

Сообщений: 14

Спасиба

Создавать темы 27-Июл-2014 17:23

[Профиль]  [ЛС] 

Nastya Lou

Стаж: 5 лет 4 месяца

Сообщений: 42

Симпатии: 1

Почему раздача остановилась скачалось 71%так быстро и все...заглохла??

Создавать темы 09-Фев-2015 01:48

[Профиль]  [ЛС] 
Показать сообщения:    
Ответить на тему

Текущее время: 23-Авг 13:12

Часовой пояс: UTC + 5



Вы не можете начинать темы
Вы не можете отвечать на сообщения
Вы не можете редактировать свои сообщения
Вы не можете удалять свои сообщения
Вы не можете голосовать в опросах
Вы не можете прикреплять файлы к сообщениям
Вы не можете скачивать файлы