Любовь, секс и химия / Better Living Through Chemistry (Джофф Мур, Дэвид Посаментир) [2013, Драма, комедия HDRip]

Ответить на тему
 

Slapper ®

Стаж: 4 года 1 месяц

Сообщений: 2193

Симпатии: 213

Любовь, секс и химия / Better Living Through Chemistry-- Год выпуска: 2014
Страна: США, Mission Films, Occupant Entertainment
Жанр: Драма, комедия
Продолжительность: 01:31:43
Перевод: Любительский одноголосый [Pashaup]-Режиссер: Джофф Мур, Дэвид Посаментир-В ролях: Сэм Рокуэлл, Оливия Уайлд, Мишель Монахэн, Бен Шварц, Кен Ховард, Джейн Фонда, Рэй Лиотта, Норберт Лео Батц, Дженн Харрис, Харрисон Хольцер--Описание: В маленьком сонном городке жизнь идет своим чередом. Владелец аптеки Дуглас не слишком-то счастлив в браке – жена считает его неудачником и предпочитает его обществу компанию самых богатых людей в округе. И вот однажды все в жизни героя фильма резко меняется – в аптеку Дугласа заходит красотка Элизабет, и у них начинается головокружительный роман. Тихий и абсолютно безобидный до этого фармацевт с головой окунается в новые для себя отношения...
--- ---Качество: HDRip
Формат: AVI
Видео кодек: XviD
Аудио кодек: AC3
Видео: XviD; 720x304; 1696 Кбит/сек; ~ 24000 fps;
Аудио #1: AC-3; 48,0 КГц; 192 Кбит/сек; 2-ch; RUS;
Аудио #2: AC-3; 48,0 КГц; 256 Кбит/сек; 2-ch; ENG;
-

MediaInfo

Format : AVI
Format/Info : Audio Video Interleave
File size : 1.38 GiB
Duration : 1h 31mn
Overall bit rate : 2 158 Kbps
Writing application : VirtualDubMod 1.5.10.3 | www.virtualdub-fr.org || (build 2550/release)
Writing library : VirtualDubMod build 2550/release
Video
ID : 0
Format : MPEG-4 Visual
Format profile : Advanced [email protected]
Format settings, BVOP : 2
Format settings, QPel : No
Format settings, GMC : No warppoints
Format settings, Matrix : Default (H.263)
Muxing mode : Packed bitstream
Codec ID : XVID
Codec ID/Hint : XviD
Duration : 1h 31mn
Bit rate : 1 696 Kbps
Width : 720 pixels
Height : 304 pixels
Display aspect ratio : 2.35:1
Frame rate : 23.976 fps
Color space : YUV
Chroma subsampling : 4:2:0
Bit depth : 8 bits
Scan type : Progressive
Compression mode : Lossy
Bits/(Pixel*Frame) : 0.323
Stream size : 1.09 GiB (79%)
Writing library : XviD 64
Audio #1
ID : 1
Format : AC-3
Format/Info : Audio Coding 3
Mode extension : CM (complete main)
Format settings, Endianness : Big
Codec ID : 2000
Duration : 1h 31mn
Bit rate mode : Constant
Bit rate : 192 Kbps
Channel(s) : 2 channels
Channel positions : Front: L R
Sampling rate : 48.0 KHz
Bit depth : 16 bits
Compression mode : Lossy
Stream size : 126 MiB (9%)
Alignment : Split accross interleaves
Interleave, duration : 42 ms (1.00 video frame)
Interleave, preload duration : 500 ms
Audio #2
ID : 2
Format : AC-3
Format/Info : Audio Coding 3
Mode extension : CM (complete main)
Format settings, Endianness : Big
Codec ID : 2000
Duration : 1h 31mn
Bit rate mode : Constant
Bit rate : 256 Kbps
Channel(s) : 2 channels
Channel positions : Front: L R
Sampling rate : 48.0 KHz
Bit depth : 16 bits
Compression mode : Lossy
Stream size : 168 MiB (12%)
Alignment : Split accross interleaves
Interleave, duration : 42 ms (1.00 video frame)
Interleave, preload duration : 500 ms

Скриншоты

Создавать темы 10-Апр-2014 22:07

[Профиль]  [ЛС] 

serj777

Стаж: 4 года 5 месяцев

Сообщений: 59

Симпатии: 3

и когда проверят?

Создавать темы 10-Апр-2014 22:30

[Профиль]  [ЛС] 
Показать сообщения:    
Ответить на тему

Текущее время: 15-Дек 21:10

Часовой пояс: UTC + 5



Вы не можете начинать темы
Вы не можете отвечать на сообщения
Вы не можете редактировать свои сообщения
Вы не можете удалять свои сообщения
Вы не можете голосовать в опросах
Вы не можете прикреплять файлы к сообщениям
Вы не можете скачивать файлы