Волейбол!! / Haikyuu!! / Haikyu!! (Мицунака Сусуму) [TV] [25 из 25] [Без хардсаба] [RUS(int)] [2014 г., сёнен, спорт, HDTVRip][720p]

Ответить на тему
 

[email protected] ®

Стаж: 4 года 3 месяца

Сообщений: 336

Симпатии: 143

- Страна: Япония
Год выпуска: 2014 г.
Жанр: Cёнен, спорт
Продолжительность: ТВ 25 эп., 25 мин.-Режиссер: Мицунака Сусуму
Автор оригинала: Фурудатэ Харуити
Студия: -Описание: Один случайный матч зажег в Хинате Шоую безумную любовь к волейболу. Хоть в его волейбольном клубе изначально не было даже участников, упорством и стараниями Шоую собравшаяся команда всё-таки прорвалась в свой первый и последний финальный матч средней школы. Но там она была начисто разгромлена Тобио Кагеямой, известным как "Король площадки". Поклявшись отомстить, Хината вступает в клуб волейбола в старшей школе Карасумо... и лицом к лицу сталкивается со своим ненавистным противником Кагеямой.-Информационные ссылки: AniDB | World Art | MAL-Качество: HDTVRip
Формат: mp4
Тип релиза: Без хардсаба
Озвучка: JAM-Видео: x264 [8 bit], 1280x720, ~1770 kbps, 25,000 fps
Аудио: RUS (int), AAC, 128 kbps, 44.1 kHz, 2 ch - JAM-

Список эпизодов


1. Конец и начало
2. Волейбольный клуб старшей школы Карасуно
3. Сильнейший союзник
4. Вид с вершины
5. Волнение новичка
6. Занимательная команда
7. Против императора
8. Тот, кого зовут асом
9. Пас для аса
10. Восхищение
11. Решение
12. Новая встреча котов и воронов
13. Соперники
14. Сильнейшие противники
15. Возрождение
16. Победитель и проигравший
17. Железная стена
18. Прикрывайте тыл
19. Дирижеры
20. Оикава Тору не гений
21. Истинная сила сэмпая
22. Прогресс
23. Очко, меняющее ход игры
24. Долой Одинокого Короля
25. Третий день

MediaInfo

General
Complete name                  : F:\Video\Аниме\Haikyuu!!\[AniDub]_Haikyuu!!_[01]_[720p_x264_Aac]_[JAM].mp4
Format                         : MPEG-4
Format profile                 : Base Media
Codec ID                       : isom
File size                      : 286 MiB
Duration                       : 24mn 30s
Overall bit rate mode          : Variable
Overall bit rate               : 1 631 Kbps
Encoded date                   : UTC 2014-04-06 18:22:28
Tagged date                    : UTC 2014-04-06 18:22:28
Writing application            : Yamb 2.1.0.0 [http://yamb.unite-video.com]
Video
ID                             : 1
Format                         : AVC
Format/Info                    : Advanced Video Codec
Format profile                 : [email protected]
Format settings, CABAC         : Yes
Format settings, ReFrames      : 4 frames
Codec ID                       : avc1
Codec ID/Info                  : Advanced Video Coding
Duration                       : 24mn 30s
Bit rate                       : 1 435 Kbps
Maximum bit rate               : 8 751 Kbps
Width                          : 1 280 pixels
Height                         : 720 pixels
Display aspect ratio           : 16:9
Frame rate mode                : Constant
Frame rate                     : 23.976 fps
Color space                    : YUV
Chroma subsampling             : 4:2:0
Bit depth                      : 8 bits
Scan type                      : Progressive
Bits/(Pixel*Frame)             : 0.065
Stream size                    : 252 MiB (88%)
Title                          : 264
Writing library                : x264 core 129 r2245+729M 1a52e03
Encoding settings              : cabac=1 / ref=4 / deblock=1:1:-1 / analyse=0x3:0x113 / me=umh / subme=9 / psy=1 / fade_compensate=0.00 / psy_rd=1.00:0.00 / mixed_ref=1 / me_range=24 / chroma_me=1 / trellis=2 / 8x8dct=1 / cqm=0 / deadzone=21,11 / fast_pskip=1 / chroma_qp_offset=-2 / threads=8 / lookahead_threads=1 / sliced_threads=0 / nr=0 / decimate=1 / interlaced=0 / bluray_compat=0 / constrained_intra=0 / fgo=0 / bframes=9 / b_pyramid=2 / b_adapt=2 / b_bias=0 / direct=1 / weightb=1 / open_gop=0 / weightp=2 / keyint=240 / keyint_min=24 / scenecut=40 / intra_refresh=0 / rc=crf / mbtree=0 / crf=19.0 / qcomp=0.72 / qpmin=0 / qpmax=69 / qpstep=4 / ip_ratio=1.40 / pb_ratio=1.30 / aq=1:0.85
Encoded date                   : UTC 2014-04-06 15:27:11
Tagged date                    : UTC 2014-04-06 18:22:32
Color primaries                : BT.709
Transfer characteristics       : BT.709
Matrix coefficients            : BT.709
Audio
ID                             : 2
Format                         : AAC
Format/Info                    : Advanced Audio Codec
Format profile                 : LC
Codec ID                       : 40
Duration                       : 24mn 30s
Bit rate mode                  : Variable
Bit rate                       : 192 Kbps
Maximum bit rate               : 196 Kbps
Channel(s)                     : 2 channels
Channel positions              : Front: L R
Sampling rate                  : 48.0 KHz
Compression mode               : Lossy
Stream size                    : 33.7 MiB (12%)
Title                          : JAM
Language                       : Russian
Encoded date                   : UTC 2014-04-06 18:22:31
Tagged date                    : UTC 2014-04-06 18:22:32

Скриншоты





Последний раз редактировалось: [email protected] (2014-09-23 12:34), всего редактировалось 13 раз(а)

Создавать темы 10-Апр-2014 23:22

[Профиль]  [ЛС] 

[email protected] ®

Стаж: 4 года 3 месяца

Сообщений: 336

Симпатии: 143

Обновлено до 2-ой серии

Создавать темы 16-Апр-2014 00:58

[Профиль]  [ЛС] 

[email protected] ®

Стаж: 4 года 3 месяца

Сообщений: 336

Симпатии: 143

Обновлено до 3-ей серии

Создавать темы 01-Май-2014 18:07

[Профиль]  [ЛС] 

[email protected] ®

Стаж: 4 года 3 месяца

Сообщений: 336

Симпатии: 143

Обновлено до 7-ой серии


Последний раз редактировалось: [email protected] (2014-09-23 12:20), всего редактировалось 1 раз

Создавать темы 26-Май-2014 08:51

[Профиль]  [ЛС] 

[email protected] ®

Стаж: 4 года 3 месяца

Сообщений: 336

Симпатии: 143

Обновлено до 9-ой серии

Создавать темы 10-Июл-2014 02:07

[Профиль]  [ЛС] 

[email protected] ®

Стаж: 4 года 3 месяца

Сообщений: 336

Симпатии: 143

Обновлено до 11-ой серии

Создавать темы 21-Июл-2014 01:20

[Профиль]  [ЛС] 

[email protected] ®

Стаж: 4 года 3 месяца

Сообщений: 336

Симпатии: 143

Добавлены все серии!-Сменил озвучку на Анидаб, ибо прошлая застряла на 11 серии.
Приятного просмотра!

Создавать темы 23-Сен-2014 12:33

[Профиль]  [ЛС] 

Топик был перенесен из форума Аниме онгоинги в форум HD, HDTVRip
SNIL

Создавать темы 23-Сен-2014 13:10

 

Reina

Стаж: 4 года 3 месяца

Сообщений: 164

Симпатии: 76

Классное аниме ^^ Очень вдохновляет

Создавать темы 19-Окт-2014 00:12

[Профиль]  [ЛС] 

Coolboy_17

Стаж: 4 года 4 месяца

Сообщений: 76

Симпатии: 14

[email protected], Спасибо!

Комментарий от [email protected]


Всегда пожалуйста!
Если будут желающие, может быть скоро 3 сезон Куроко залью!

Создавать темы 06-Фев-2015 18:17

[Профиль]  [ЛС] 
Показать сообщения:    
Ответить на тему

Текущее время: 22-Окт 20:33

Часовой пояс: UTC + 5



Вы не можете начинать темы
Вы не можете отвечать на сообщения
Вы не можете редактировать свои сообщения
Вы не можете удалять свои сообщения
Вы не можете голосовать в опросах
Вы не можете прикреплять файлы к сообщениям
Вы не можете скачивать файлы