Шерлок Холмс: Дилогия / Sherlock Holmes: Dilogy (Гай Ричи) [2009 / 2011гг., Боевик, Драма, Комедия, Криминал, Триллер, HDRip] Dub

Ответить на тему
 

black flag ®

Стаж: 4 года 1 месяц

Сообщений: 35

Симпатии: 34

Шерлок Холмс: Дилогия / Sherlock Holmes: Dilogy- -

Шерлок Холмс/Sherlock Holmes

Шерлок Холмс/Sherlock Holmes Год выпуска: 2009
Страна: Великобритания, Германия, США
Жанр: Боевик, Драма, Комедия, Криминал, Триллер
Продолжительность: 02:07:49
Перевод: Профессиональный (полное дублирование)
Режиссер: Гай Ричи
В ролях: Ганс Мэтисон, Джеральдин Джеймс, Джуд Лоу, Келли Райлли, Марк Стронг, Роберт Дауни мл, Роберт Мэйллет, Рэйчел МакАдамс, Уильям Хьюстон, Эдди Марсан
Описание: Величайший в истории сыщик Шерлок Холмс вместе со своим верным соратником Ватсоном вступают в схватку, требующую нешуточной физической и умственной подготовки, ведь их враг представляет угрозу для всего Лондона
Качество: HDRip
Формат: MKV
Видео кодек: Другой MPEG4
Аудио кодек: AC3
Видео: MPEG-4 Visual,720x384,2 324 Kbps
Аудио: AC-3, 320 Kbps, 2 channels, 48.0 KHz

screenshot



MI

Format                                   : Matroska
Format version                           : Version 2
File size                                : 2.08 GiB
Duration                                 : 2h 7mn
Overall bit rate                         : 2 324 Kbps
Writing application                      : Lavf51.12.1
Writing library                          : Lavf51.12.1
Video
ID                                       : 1
Format                                   : MPEG-4 Visual
Format profile                           : [email protected]
Format settings, BVOP                    : No
Format settings, QPel                    : No
Format settings, GMC                     : No warppoints
Format settings, Matrix                  : Default (H.263)
Codec ID                                 : V_MPEG4/ISO/ASP
Codec ID/Info                            : Advanced Simple Profile
Duration                                 : 2h 7mn
Bit rate                                 : 1 958 Kbps
Width                                    : 720 pixels
Height                                   : 384 pixels
Display aspect ratio                     : 3:2
Frame rate mode                          : Constant
Frame rate                               : 23.962 fps
Standard                                 : NTSC
Color space                              : YUV
Chroma subsampling                       : 4:2:0
Bit depth                                : 8 bits
Scan type                                : Progressive
Compression mode                         : Lossy
Bits/(Pixel*Frame)                       : 0.236
Stream size                              : 1.75 GiB (84%)
Writing library                          : Lavc51.40.4
Default                                  : Yes
Forced                                   : No
Audio
ID                                       : 2
Format                                   : AC-3
Format/Info                              : Audio Coding 3
Mode extension                           : CM (complete main)
Format settings, Endianness              : Big
Codec ID                                 : A_AC3
Duration                                 : 2h 7mn
Bit rate mode                            : Constant
Bit rate                                 : 320 Kbps
Channel(s)                               : 2 channels
Channel positions                        : Front: L R
Sampling rate                            : 48.0 KHz
Bit depth                                : 16 bits
Compression mode                         : Lossy
Stream size                              : 293 MiB (14%)
Default                                  : Yes
Forced                                   : No
--

Шерлок Холмс: Игра Теней/Sherlock Holmes: A Game of Shadows

Шерлок Холмс: Игра Теней/Sherlock Holmes: A Game of Shadows
Год выпуска: 2011
Страна: США, Германия
Жанр: Боевик, Детектив, Криминал, Приключения, Триллер
Продолжительность: 02:08:44
Перевод: Профессиональный (полное дублирование)
Режиссер: Гай Ричи
В ролях: Ганс Мэтисон, Джеральдин Джеймс, Джуд Лоу, Келли Райлли, Марк Стронг, Роберт Дауни мл, Роберт Мэйллет, Рэйчел МакАдамс, Уильям Хьюстон, Эдди Марсан
Описание: 1891 год. В Вене и Страсбурге проходит серия терактов, организованных анархистами или националистами, а по всей Европе происходят таинственные убийства. Шерлок Холмс считает, что за всем этим стоит профессор Джеймс Мориарти — математический гений, автор знаменитых лекций и трудов.
Качество: HDRip
Формат: MKV
Видео кодек: Другой MPEG4
Аудио кодек: AC3
Видео: MPEG-4 Visual,720x304,2 324 Kbps
Аудио: AC-3, 320 Kbps, 2 channels, 48.0 KHz

screenshot



MI

Format                                   : Matroska
Format version                           : Version 2
File size                                : 2.28 GiB
Duration                                 : 2h 8mn
Overall bit rate                         : 2 530 Kbps
Writing application                      : Lavf51.12.1
Writing library                          : Lavf51.12.1
Video
ID                                       : 1
Format                                   : MPEG-4 Visual
Format profile                           : [email protected]
Format settings, BVOP                    : No
Format settings, QPel                    : No
Format settings, GMC                     : No warppoints
Format settings, Matrix                  : Default (H.263)
Codec ID                                 : V_MPEG4/ISO/ASP
Codec ID/Info                            : Advanced Simple Profile
Duration                                 : 2h 8mn
Bit rate                                 : 2 159 Kbps
Width                                    : 720 pixels
Height                                   : 304 pixels
Display aspect ratio                     : 3:2
Frame rate mode                          : Constant
Frame rate                               : 23.962 fps
Standard                                 : NTSC
Color space                              : YUV
Chroma subsampling                       : 4:2:0
Bit depth                                : 8 bits
Scan type                                : Progressive
Compression mode                         : Lossy
Bits/(Pixel*Frame)                       : 0.261
Stream size                              : 1.94 GiB (85%)
Writing library                          : Lavc51.40.4
Default                                  : Yes
Forced                                   : No
Audio
ID                                       : 2
Format                                   : AC-3
Format/Info                              : Audio Coding 3
Mode extension                           : CM (complete main)
Format settings, Endianness              : Big
Codec ID                                 : A_AC3
Duration                                 : 2h 8mn
Bit rate mode                            : Constant
Bit rate                                 : 320 Kbps
Channel(s)                               : 2 channels
Channel positions                        : Front: L R
Sampling rate                            : 48.0 KHz
Bit depth                                : 16 bits
Compression mode                         : Lossy
Stream size                              : 295 MiB (13%)
Default                                  : Yes
Forced                                   : No
-

Создавать темы 11-Апр-2014 19:53

[Профиль]  [ЛС] 

Tiar17

Стаж: 6 лет

Сообщений: 83

Симпатии: 5

а что такое качество УГ?

Создавать темы 20-Апр-2014 22:57

[Профиль]  [ЛС] 

ReD TiGeR

Стаж: 5 лет 2 месяца

Сообщений: 135

Симпатии: 2

во второй части озвучка нормальная, в первой какой-то не привычный

Создавать темы 18-Май-2014 22:55

[Профиль]  [ЛС] 

Alien2285

Стаж: 7 лет 4 месяца

Сообщений: 40

Звук ТС по ходу... :(

Создавать темы 19-Май-2014 23:43

[Профиль]  [ЛС] 
Показать сообщения:    
Ответить на тему

Текущее время: 24-Сен 15:19

Часовой пояс: UTC + 5



Вы не можете начинать темы
Вы не можете отвечать на сообщения
Вы не можете редактировать свои сообщения
Вы не можете удалять свои сообщения
Вы не можете голосовать в опросах
Вы не можете прикреплять файлы к сообщениям
Вы не можете скачивать файлы