Ход конём / The Knight's Move (Гор Киракосян) [2013, комедия, приключения, WEBRip]

Ответить на тему
 

Каротажник ®

Стаж: 4 года 1 месяц

Сообщений: 195

Симпатии: 211

Ход конём / The Knight's Move

Год выпуска: 2013
Страна: Армения, Казахстан
Жанр: комедия, приключения

Продолжительность: 01:38:24
Перевод: Профессиональный многоголосый

Режиссёр: Гор Киракосян
В ролях: Ованнес Азоян, Асель Сагатова, Мкртыч Арзуманян, Санжар Мадиев, Сос Джанибекян

На международном шахматном турнире к армянскому шахматисту Тиграну случайно попадает древнее сокровище музея — рубин Тамерлана, который в это время пытается похитить умелый вор Мурад. По поручению мафии Мурад отправляется за Тиграном в Армению, чтоб вернуть реликвию. Так и начинается забавное и полное курьезных ситуаций дорожное приключение в погоне за рубином…




Качество: WEBRip
Формат: Avi

Видео: Xvid 720x320 25fps 1890kbps
Аудио: AC3 44100Hz stereo 192kbps

Media Info

Format : AVI
Format/Info : Audio Video Interleave
Format profile : OpenDML
File size : 1.44 GiB
Duration : 1h 38mn
Overall bit rate : 2 094 Kbps
Writing application : Lavf55.21.100
Video
ID : 0
Format : MPEG-4 Visual
Format profile : [email protected]
Format settings, BVOP : No
Format settings, QPel : No
Format settings, GMC : No warppoints
Format settings, Matrix : Default (H.263)
Codec ID : XVID
Codec ID/Hint : XviD
Duration : 1h 38mn
Bit rate : 1 890 Kbps
Width : 720 pixels
Height : 320 pixels
Display aspect ratio : 2.25:1
Original display aspect ratio : 2.25:1
Frame rate : 25.000 fps
Color space : YUV
Chroma subsampling : 4:2:0
Bit depth : 8 bits
Scan type : Progressive
Compression mode : Lossy
Bits/(Pixel*Frame) : 0.328
Stream size : 1.30 GiB (90%)
Writing library : XviD 64
Audio
ID : 1
Format : AC-3
Format/Info : Audio Coding 3
Mode extension : CM (complete main)
Format settings, Endianness : Big
Codec ID : 2000
Duration : 1h 38mn
Bit rate mode : Constant
Bit rate : 192 Kbps
Channel(s) : 2 channels
Channel positions : Front: L R
Sampling rate : 44.1 KHz
Bit depth : 16 bits
Compression mode : Lossy
Stream size : 135 MiB (9%)
Alignment : Aligned on interleaves
Interleave, duration : 35 ms (0.87 video frame)

Скриншоты


Создавать темы 11-Апр-2014 22:37

[Профиль]  [ЛС] 

tayat

Стаж: 4 года 6 месяцев

Сообщений: 21

Симпатии: 5

WTF! Половина фильма балоболят на незнакомом языке! Смотреть невозможно! Зря качал! В описании надо указать "ТОЛЬКО ДЛЯ АРМЕНИИ И КАЗАХСТАНА" ИМХО!

Создавать темы 16-Май-2014 22:56

[Профиль]  [ЛС] 

Тёмkа-91

Стаж: 5 лет 10 месяцев

Сообщений: 88

Фильм норм., один раз посмотреть можно. Только, один большой минус, половину фильма без перевода на армянском говорят...

Создавать темы 03-Июн-2014 13:22

[Профиль]  [ЛС] 
Показать сообщения:    
Ответить на тему

Текущее время: 20-Ноя 07:07

Часовой пояс: UTC + 5



Вы не можете начинать темы
Вы не можете отвечать на сообщения
Вы не можете редактировать свои сообщения
Вы не можете удалять свои сообщения
Вы не можете голосовать в опросах
Вы не можете прикреплять файлы к сообщениям
Вы не можете скачивать файлы