Мальчики Налетчики / Takers (Джон Льюсенхоп / John Luessenhop) [2010, США, Боевик, Триллер, Криминал, BDRip 1080p]

Ответить на тему
 

Phantomhive ®

Стаж: 4 года 4 месяца

Сообщений: 218

Симпатии: 10

Мальчики Налётчики / Takers«Чем живёшь, молодежь...»
-Год выпуска: 2010
Страна: США
Жанр: Боевик, Триллер, Криминал
Продолжительность: 01:46:58
Перевод: Профессиональный (полное дублирование)-Режиссер: Джон Льюсенхоп / John Luessenhop
Сценарий: Питер Аллен / Peter Allen, Гэбриел Коссес / Gabriel Casseus, Джон Льюсенхоп / John Luessenhop, Эйвери Дафф / Avery Duff
Продюсер: Крис Браун / Chris Brown, Гэбриел Коссес / Gabriel Casseus, Моррис Честнат / Morris Chestnut, Джордж Флинн / George Flynn, Гленн С. Гейнор / Glenn S. Gainor
Оператор: Майкл Баррет / Michael Barrett
Композитор: Пол Хаслингер / Paul Haslinger
В ролях: Пол Уокер (John Rahway), Хейден Кристенсен (A.J.), Мэтт Диллон (Jack Welles), Зои Салдана (Lilly), Марианн Жан-Баптист (Naomi Cozier), Крис Браун (Jesse Attica), Майкл Или (Jake Attica), Идрис Эльба (Gordon Cozier), Стив Харрис (Lt. Carver), T.I. (Dalonte' Rivers / Ghost), Джей Эрнандез (Eddie Hatcher), Джонатон Шаех (Scott)
Дублёры: Алексей Мясников (John Rahway), Михаил Тихонов (A.J.), Василий Дахненко (Jack Welles), Инна Королёва (Naomi Cozier), Антон Эльдаров (Jesse Attica), Евгений Вальц (Jake Attica), Владислав Копп (Gordon Cozier), Радик Мухаметзянов (Lt. Carver), Виктор Добронравов (Dalonte' Rivers / Ghost), Александр Гаврилин (Eddie Hatcher), Всеволод Кузнецов (Scott), Вадим Медведев (Sergei)-
Бюджет: $32 000 000
Сборы в США: $57 744 720
Сборы в России: $1 278 755
Сборы в мире: $69 055 695
Мировая премьера: 4 августа 2010
Релиз на DVD: 2 декабря 2010, «Columbia/Sony»
Релиз на Blu-ray: 24 февраля 2011, «Columbia/Sony»
-Описание: Группа профессиональных налетчиков, специализирующихся на особенно сложных грабежах, собирается отойти от дел. Однако их бывший напарник, освободившись из тюрьмы, предлагает банде совершить "последнее дело". Предложение вызывает множество споров, но парни соглашаются и команда разрабатывает план дерзкого ограбления, которое должно принести им 20 миллионов долларов. Они просчитывают все детали, каждую мелочь, однако они не учли одного, на след банды выходит сильный соперник - полицейский детектив Джек Уэллс.-Тип релиза: BDRip (EbP)
Контейнер: MKV
Видео: H264 / 15329 kbps / 1920x800 / 23,976 fps
Аудио 1: Русский дубляж Dolby Digital / 5.1 / 640 kbps / 48 kHz
Аудио 2: Английский DTS / 5.1 / 1536 kbps / 48 kHz
Аудио 3: Английский LC-AAC / 2.0 / 64 kbps / 48 /24 kHz (коменты)
Субтитры 1: Русские
Субтитры 2: Английские
Субтитры 2: Английские (коменты)-

MediaInfo

General
Unique ID : 249439056842917621180065706113284238503 (0xBBA83702DB76165E9E6326242750ECA7)
Complete name : F:\Мальчики Налётчики\Мальчики Налётчики.mkv
Format : Matroska
Format version : Version 2
File size : 13.1 GiB
Duration : 1h 47mn
Overall bit rate : 17.5 Mbps
Movie name : Takers 2010 1080p BluRay x264-EbP
Encoded date : UTC 2011-01-26 05:53:14
Writing application : mkvmerge v4.4.0 ('Die Wiederkehr') сборка от Oct 31 2010 21:52:48
Writing library : libebml v1.0.0 + libmatroska v1.0.0
Video
ID : 1
Format : AVC
Format/Info : Advanced Video Codec
Format profile : [email protected]
Format settings, CABAC : Yes
Format settings, ReFrames : 5 frames
Codec ID : V_MPEG4/ISO/AVC
Duration : 1h 47mn
Nominal bit rate : 15.3 Mbps
Width : 1 920 pixels
Height : 800 pixels
Display aspect ratio : 2.40:1
Frame rate mode : Constant
Frame rate : 23.976 fps
Color space : YUV
Chroma subsampling : 4:2:0
Bit depth : 8 bits
Scan type : Progressive
Bits/(Pixel*Frame) : 0.416
Writing library : x264 core 112 r1834 a51816a
Encoding settings : cabac=1 / ref=5 / deblock=1:-3:-3 / analyse=0x3:0x133 / me=umh / subme=10 / psy=1 / psy_rd=1.00:0.00 / mixed_ref=1 / me_range=64 / chroma_me=1 / trellis=2 / 8x8dct=1 / cqm=0 / deadzone=21,11 / fast_pskip=0 / chroma_qp_offset=-2 / threads=18 / sliced_threads=0 / nr=0 / decimate=0 / interlaced=0 / constrained_intra=0 / bframes=9 / b_pyramid=2 / b_adapt=2 / b_bias=0 / direct=3 / weightb=1 / open_gop=0 / weightp=2 / keyint=250 / keyint_min=23 / scenecut=40 / intra_refresh=0 / rc=2pass / mbtree=0 / bitrate=15333 / ratetol=1.0 / qcomp=0.60 / qpmin=10 / qpmax=51 / qpstep=4 / cplxblur=20.0 / qblur=0.5 / ip_ratio=1.40 / pb_ratio=1.30 / aq=2:0.50
Language : English
Default : Yes
Forced : No
Audio #1
ID : 2
Format : AC-3
Format/Info : Audio Coding 3
Mode extension : CM (complete main)
Format settings, Endianness : Big
Codec ID : A_AC3
Duration : 1h 47mn
Bit rate mode : Constant
Bit rate : 640 Kbps
Channel(s) : 6 channels
Channel positions : Front: L C R, Side: L R, LFE
Sampling rate : 48.0 KHz
Bit depth : 16 bits
Compression mode : Lossy
Stream size : 490 MiB (4%)
Title : Dub BD
Language : Russian
Default : Yes
Forced : No
Audio #2
ID : 3
Format : DTS
Format/Info : Digital Theater Systems
Mode : 16
Format settings, Endianness : Big
Codec ID : A_DTS
Duration : 1h 47mn
Bit rate mode : Constant
Bit rate : 1 509 Kbps
Channel(s) : 6 channels
Channel positions : Front: L C R, Side: L R, LFE
Sampling rate : 48.0 KHz
Bit depth : 24 bits
Compression mode : Lossy
Stream size : 1.13 GiB (9%)
Language : English
Default : No
Forced : No
Audio #3
ID : 4
Format : AAC
Format/Info : Advanced Audio Codec
Format profile : HE-AAC / LC
Codec ID : A_AAC
Duration : 1h 47mn
Channel(s) : 2 channels
Channel positions : Front: L R
Sampling rate : 48.0 KHz / 24.0 KHz
Compression mode : Lossy
Title : Commentary
Language : English
Default : No
Forced : No
Text #1
ID : 5
Format : UTF-8
Codec ID : S_TEXT/UTF8
Codec ID/Info : UTF-8 Plain Text
Language : Russian
Default : No
Forced : No
Text #2
ID : 6
Format : UTF-8
Codec ID : S_TEXT/UTF8
Codec ID/Info : UTF-8 Plain Text
Language : English
Default : No
Forced : No
Text #3
ID : 7
Format : UTF-8
Codec ID : S_TEXT/UTF8
Codec ID/Info : UTF-8 Plain Text
Title : Commentary
Language : English
Default : No
Forced : No
Menu
00:00:00.000 : en:00:00:00.000
00:04:13.170 : en:00:04:13.170
00:14:54.560 : en:00:14:54.560
00:20:07.623 : en:00:20:07.623
00:24:03.484 : en:00:24:03.484
00:32:46.173 : en:00:32:46.173
00:35:20.076 : en:00:35:20.076
00:44:19.448 : en:00:44:19.448
00:52:50.250 : en:00:52:50.250
00:58:38.557 : en:00:58:38.557
01:02:27.702 : en:01:02:27.702
01:06:16.764 : en:01:06:16.764
01:13:14.682 : en:01:13:14.682
01:19:49.410 : en:01:19:49.410
01:23:39.389 : en:01:23:39.389
01:30:36.473 : en:01:30:36.473

Скриншоты

Создавать темы 12-Апр-2014 06:53

[Профиль]  [ЛС] 

uztreyler

Стаж: 4 года 8 месяцев

Сообщений: 5

дайте раздачу!!!

Создавать темы 27-Апр-2014 20:34

[Профиль]  [ЛС] 
Показать сообщения:    
Ответить на тему

Текущее время: 23-Окт 14:54

Часовой пояс: UTC + 5



Вы не можете начинать темы
Вы не можете отвечать на сообщения
Вы не можете редактировать свои сообщения
Вы не можете удалять свои сообщения
Вы не можете голосовать в опросах
Вы не можете прикреплять файлы к сообщениям
Вы не можете скачивать файлы