Те, кто убивают / Those Who Kill / Сезон: 1 полный / Серии: 1-10 из 10 (Дэвид Петрарка, Фил Абрахам, Джо Карнахан) [2014, триллер, боевик, криминал, детектив, WEB-DLRip] MVO (ViruseProject)

Ответить на тему
 

saidali ®

Стаж: 5 лет 6 месяцев

Сообщений: 868

Симпатии: 554

-Те, кто убивают / Those Who Kill-Полный первый сезон-- Год выпуска: 2014
Страна: США
Жанр: триллер, боевик, криминал, детектив
Продолжительность: 00:50:00
Перевод: Профессиональный (многоголосый закадровый) ViruseProject-Режиссёр: Дэвид Петрарка, Фил Абрахам, Джо Карнахан-В ролях: Клоэ Севиньи, Джеймс Д’Арси, Джеймс Моррисон, Омид Абтахи, Шеннон М. Харт, Керри О’Мэлли, Брюс Дэвисон, Энн Дудек, Кристиан Кейбер и др.-Описание: Детектив отдела по расследованию убийств Кэтрин Дженсен новичок, но готова на все, чтобы распутать самые ужасные преступления Питсбурга. Подозревая в собственном отчиме серийного убийцу, виновного в исчезновении её брата, Кэтрин ощущает эмоциональную связь с жертвами убийств. Детектив привлекает судебного психолога Томаса Шеффера, у которого сложились непростые отношения с полицией, к расследованию как текущих дел, так и своего отчима. Шеффер тоже ощущает эмоциональную связь, но с убийцами, что довольно опасно. Вместе Дженсен и Шеффер могут противостоять собственным демонам, но этот союз может привести к ещё большим напастям.-Качество: WEB-DLRip
Формат: AVI
Видео кодек: XviD
Аудио кодек: MP3
Видео: 720x400 (1.80:1), 23.976 fps, XviD build 50 ~1419 kbps avg, 0.20 bit/pixel
Аудио: 48 kHz, MPEG Layer 3, 2 ch, ~192.00 kbps avg
- -

Скриншоты

Media Info

General
Complete name : E:\Those.Who.Kill.S01.ViruseProject\Those.Who.Kill.S01E01.ViruseProject.avi
Format : AVI
Format/Info : Audio Video Interleave
File size : 573 MiB
Duration : 49mn 25s
Overall bit rate : 1 621 Kbps
Writing application : VirtualDubMod 1.5.10.2 (build 2540/release)
Writing library : VirtualDubMod build 2540/release
Video
ID : 0
Format : MPEG-4 Visual
Format profile : Advanced [email protected]
Format settings, BVOP : Yes
Format settings, QPel : No
Format settings, GMC : No warppoints
Format settings, Matrix : Default (MPEG)
Codec ID : XVID
Codec ID/Hint : XviD
Duration : 49mn 25s
Bit rate : 1 419 Kbps
Width : 720 pixels
Height : 400 pixels
Display aspect ratio : 16:9
Frame rate : 23.976 fps
Color space : YUV
Chroma subsampling : 4:2:0
Bit depth : 8 bits
Scan type : Progressive
Compression mode : Lossy
Bits/(Pixel*Frame) : 0.206
Stream size : 502 MiB (88%)
Writing library : XviD 1.2.1 (UTC 2008-12-04)
Audio
ID : 1
Format : MPEG Audio
Format version : Version 1
Format profile : Layer 3
Mode : Joint stereo
Codec ID : 55
Codec ID/Hint : MP3
Duration : 49mn 25s
Bit rate mode : Constant
Bit rate : 192 Kbps
Channel count : 2 channels
Sampling rate : 48.0 KHz
Compression mode : Lossy
Stream size : 67.9 MiB (12%)
Alignment : Split accross interleaves
Interleave, duration : 42 ms (1.00 video frame)
Interleave, preload duration : 500 ms

Раздача ведётся путём добавления новых серий

Раздача ведётся путём добавления новых серий; при каждом добавлении создаётся новый торрент. Чтобы начать докачку новой серии, пользователям необходимо сделать следующее:
(1) остановить скачивание,
(2) удалить старый торрент у себя из клиента (старые серии удалять не надо),
(3) скачать новый торрент и запустить его у себя в клиенте вместо старого, при этом указать клиенту путь в старую папку куда и должно происходить скачивание новых серий.
Ваш клиент при этом должен произвести хеширование (проверку) старой папки (если не производит сам - помогите ему сделать это), и будет докачивать только те серии которых у вас ещё нет. Старые серии при этом не удаляются, а продолжают раздаваться!
Eсли вы уже удалили старые серии, то предотвратить повторную закачку старых серий можно, отжав галочку в соответствующих местах при запуске нового торрента. По возможности, желательно не удалять старые серии как можно дольше чтобы релизёр не столько продолжал раздавать старые серии, а смог сконцентрироваться на новых.


Последний раз редактировалось: saidali (2014-06-05 09:44), всего редактировалось 14 раз(а)

Создавать темы 12-Апр-2014 07:57

[Профиль]  [ЛС] 

emilsky

Стаж: 7 лет 1 месяц

Сообщений: 2237

Симпатии: 610

saidali, скриншоты???

Создавать темы 12-Апр-2014 08:36

[Профиль]  [ЛС] 

saidali ®

Стаж: 5 лет 6 месяцев

Сообщений: 868

Симпатии: 554

Создавать темы 20-Апр-2014 11:58

[Профиль]  [ЛС] 

DX-T-1000

Стаж: 5 лет 7 месяцев

Сообщений: 26

первую тоже поставьте на раздачу, и спасибо за релиз, а когда будет раздача?

Создавать темы 20-Апр-2014 19:25

[Профиль]  [ЛС] 

saidali ®

Стаж: 5 лет 6 месяцев

Сообщений: 868

Симпатии: 554

Ребята сколько можно раздать уже 1,14 гига раздал за вторую серию нельзя же скачать и свалевать

Создавать темы 22-Апр-2014 08:58

[Профиль]  [ЛС] 

saidali ®

Стаж: 5 лет 6 месяцев

Сообщений: 868

Симпатии: 554

Создавать темы 26-Апр-2014 14:08

[Профиль]  [ЛС] 

saidali ®

Стаж: 5 лет 6 месяцев

Сообщений: 868

Симпатии: 554

Создавать темы 03-Май-2014 09:52

[Профиль]  [ЛС] 

WDS

Стаж: 4 года 3 месяца

Сообщений: 43

Размер: 2.21 GB | Зарегистрирован: 3 дня | Скачан: 1 раз

Создавать темы 07-Май-2014 00:56

[Профиль]  [ЛС] 

saidali ®

Стаж: 5 лет 6 месяцев

Сообщений: 868

Симпатии: 554

Создавать темы 14-Май-2014 09:07

[Профиль]  [ЛС] 

saidali ®

Стаж: 5 лет 6 месяцев

Сообщений: 868

Симпатии: 554

Создавать темы 21-Май-2014 09:30

[Профиль]  [ЛС] 

saidali ®

Стаж: 5 лет 6 месяцев

Сообщений: 868

Симпатии: 554

Создавать темы 29-Май-2014 14:25

[Профиль]  [ЛС] 

saidali ®

Стаж: 5 лет 6 месяцев

Сообщений: 868

Симпатии: 554

Создавать темы 29-Май-2014 14:25

[Профиль]  [ЛС] 

saidali ®

Стаж: 5 лет 6 месяцев

Сообщений: 868

Симпатии: 554

Создавать темы 05-Июн-2014 09:45

[Профиль]  [ЛС] 

saidali ®

Стаж: 5 лет 6 месяцев

Сообщений: 868

Симпатии: 554

ДОБАВЛЕНА 10 СЕРИЯ! ФИНАЛ СЕЗОНА!

Создавать темы 05-Июн-2014 09:45

[Профиль]  [ЛС] 
Показать сообщения:    
Ответить на тему

Текущее время: 19-Авг 08:52

Часовой пояс: UTC + 5



Вы не можете начинать темы
Вы не можете отвечать на сообщения
Вы не можете редактировать свои сообщения
Вы не можете удалять свои сообщения
Вы не можете голосовать в опросах
Вы не можете прикреплять файлы к сообщениям
Вы не можете скачивать файлы