Дорога в чат (Руслан Гаврилов) [2014 г., драма, мелодрама, DVDRip]

Ответить на тему
 

igor1968 ®

Стаж: 5 лет 5 месяцев

Сообщений: 366

Симпатии: 197

Дорога в чат«Две истории. Двойная жизнь. И долгая дорога в ... чат» Год выпуска: 2014
Жанр: драма, мелодрама
Продолжительность: 00:55:09.227
Страна:
Режиссер: Руслан Гаврилов
В ролях: Ирина Видрицкая
Сергей Марков
Михаил Мухин
Евгений Чауш
Руслан Гаврилов
История повествует о двух параллельных жизнях, в которых главная героиня вынуждена, по тем или иным причинам вести двойную жизнь. Днём, она тихая и незаметная, а ночью становится участницей эротического видеочата.- -премьера
22 марта 2014-Качество: DVDRip
Формат: AVI
Видео кодек: XviD
Аудио кодек: MP3
Видео: 720x304 (2.37:1), 23.976 fps, XviD build 73 ~1538 kbps avg, 0.29 bit/pixel
Аудио: 44.100 kHz, MPEG Layer 3, 2 ch, ~320.00 kbps avg-

MediaInfo

General
Complete name : Doroga.v.chat.O.DVDRip.avi
Format : AVI
Format/Info : Audio Video Interleave
File size : 738 MiB
Duration : 55mn 9s
Overall bit rate mode : Variable
Overall bit rate : 1 871 Kbps
Writing application : VirtualDubMod 1.5.10.3 | www.virtualdub-fr.org || (build 2550/release)
Writing library : VirtualDubMod build 2550/release
Video
ID : 0
Format : MPEG-4 Visual
Format profile : Advanced [email protected]
Format settings, BVOP : Yes
Format settings, QPel : No
Format settings, GMC : No warppoints
Format settings, Matrix : Custom
Codec ID : XVID
Codec ID/Hint : XviD
Duration : 55mn 9s
Bit rate : 1 539 Kbps
Width : 720 pixels
Height : 304 pixels
Display aspect ratio : 2.35:1
Frame rate : 23.976 fps
Color space : YUV
Chroma subsampling : 4:2:0
Bit depth : 8 bits
Scan type : Progressive
Compression mode : Lossy
Bits/(Pixel*Frame) : 0.293
Stream size : 607 MiB (82%)
Writing library : XviD 73
Audio
ID : 1
Format : MPEG Audio
Format version : Version 1
Format profile : Layer 3
Mode : Joint stereo
Mode extension : MS Stereo
Codec ID : 55
Codec ID/Hint : MP3
Duration : 55mn 9s
Bit rate mode : Variable
Bit rate : 320 Kbps
Channel count : 2 channels
Sampling rate : 44.1 KHz
Compression mode : Lossy
Stream size : 126 MiB (17%)
Alignment : Aligned on interleaves
Interleave, duration : 26 ms (0.63 video frame)
Interleave, preload duration : 498 ms
Writing library : LAME3.97
-

Скриншоты

-ВИДЕОРОЛИК- -


Последний раз редактировалось: igor1968 (2014-04-13 10:48), всего редактировалось 1 раз

Создавать темы 13-Апр-2014 08:09

[Профиль]  [ЛС] 

blackshark

Стаж: 6 лет 7 месяцев

Сообщений: 260

Симпатии: 23

Какая озвучка?

Создавать темы 13-Апр-2014 10:04

[Профиль]  [ЛС] 

Gulnoza

Стаж: 4 года 7 месяцев

Сообщений: 15

как филм

Создавать темы 13-Апр-2014 20:15

[Профиль]  [ЛС] 

icefrog_ss

Стаж: 4 года 11 месяцев

Сообщений: 69

Симпатии: 3

Рахмат!!!

Создавать темы 03-Май-2014 13:20

[Профиль]  [ЛС] 

umka777

Стаж: 5 лет 6 месяцев

Сообщений: 26

фильм не очень. но когда нечего смотреть то можно и его посмотреть

Создавать темы 07-Июл-2014 22:52

[Профиль]  [ЛС] 

serj777

Стаж: 4 года 1 месяц

Сообщений: 59

Симпатии: 3

не, не канает!))

Создавать темы 02-Авг-2014 03:42

[Профиль]  [ЛС] 

sprut66

Стаж: 4 года 6 месяцев

Сообщений: 51

Симпатии: 5

Реклама "рулетки")).

Создавать темы 03-Авг-2014 11:33

[Профиль]  [ЛС] 

Sektor

Стаж: 7 лет 2 месяца

Сообщений: 95

Ау, раздавайте!

Создавать темы 10-Фев-2015 20:33

[Профиль]  [ЛС] 
Показать сообщения:    
Ответить на тему

Текущее время: 19-Авг 14:14

Часовой пояс: UTC + 5



Вы не можете начинать темы
Вы не можете отвечать на сообщения
Вы не можете редактировать свои сообщения
Вы не можете удалять свои сообщения
Вы не можете голосовать в опросах
Вы не можете прикреплять файлы к сообщениям
Вы не можете скачивать файлы