11глаз / 11 глаз / 11eyes / 11 eyes (Симода Масами) [TV+Special] [12+1 из 12+1] [без хардсаба] [JAP + SUB] [2009 г., Мистика, Этти, Драма, BDRip] [720p]

Ответить на тему
 

Alex_38 ®

Стаж: 5 лет 7 месяцев

Сообщений: 336

Симпатии: 37

- Год выпуска: 2009
Страна: Япония
Жанр: Мистика, Этти, Драма
Продолжительность: 12+1 эп. по 25 мин.
Выпуск: c 07.10.2009 по 23.12.2009-Перевод:
  • русские субтитры от Shift (полные/вспомогательные)
    Перевод: Jaga, Редактура: Lighter235, tina
-Режиссер: Симода Масами
Студия: Dogakobo-Описание:
Какэру Сацуки вырос в приюте. Когда его старшая сестра покончила с собой, 10-летний мальчик тоже потерял волю к жизни и спасся лишь благодаря помощи и поддержке еще одной сироты, Юки. Прошло семь лет. Юка счастлива в приемной семье Минасэ, Какэру живет один, но учится в одном классе с подругой детства. Тем не менее, главный герой из-за детской травмы и повязки на правом глазу остается мрачным и нелюдимым парнем и, кроме Юки, свободно общается в классе разве что с парой человек – местным комиком Тадаси и его строгой подружкой Каори. Вот с ними Сацуки и Минасэ и собрались на распродажу в местный супермаркет. Но не дошли. За несколько мучительных мгновений мир окрасился багрянцем, а на небе застыла черная луна. Город Аямэгаока остался, а люди исчезли. Так началось знакомство героев с миром Красной Ночи.
В этом мире, рожденном ночными кошмарами, бал правят шесть Черных Рыцарей, которые очень не любят незваных гостей. Победить хозяев – единственный способ разгадать загадки и получить ответы, а оно того стоит. И вот в неведомое вместе с Какэру и Юкой уходят еще несколько героев, у которых на шестерых - 11 глаз. Только это не так. В мире Красной Ночи вообще все не так! Ну а кто виноват и что делать, мы узнаем, посмотрев сериал!
© Hollow, World Art-Информационные ссылки: AniDB || World Art || MAL
-

Список Эпизодов

01. Red Night
02. The Girl In the Crystal
03. Lonely Pride
04. A Smiling Mask
05. For Friends And For Tomorrow
06. Disturbed Minds
07. Twisted Awakening
08. The Witching Hour
09. Broken Bonds
10. The Awakening of the Witch
11. The Choice Called Ruin
12. The Dawn After the Dark Night
S1. Pink Dream Story
-Качество: BDRip
Энкод: Winter - RG Pantheon
Тип видео: без хардсаба
Формат: mkv
Видео: x264 (Hi10p), 1280x720, ~3000 Kbps, 23.976 fps
Аудио JAP: Vorbis, 48000Hz, ~256 Kbps, 2ch
-

Подробные тех. данные

Общее
Уникальный идентификатор : 198688103660798309101353896224863043244 (0x9579EFD4F7D29B10AC5AF3B651E43EAC)
Полное имя : ***\11eyes [BD] [720p]\[Winter] 11eyes 04 [BDrip 1280x720 x264 Vorbis].mkv
Формат : Matroska
Версия формата : Version 2
Размер файла : 659 Мбайт
Продолжительность : 24 м.
Режим общего битрейта : Переменный
Общий поток : 3696 Кбит/сек
Дата кодирования : UTC 2013-01-03 15:45:59
Программа кодирования : mkvmerge v2.9.8 ('C'est le bon') built on Aug 13 2009 12:49:06
Библиотека кодирования : libebml v0.7.7 + libmatroska v0.8.1
Видео
Идентификатор : 1
Формат : AVC
Формат/Информация : Advanced Video Codec
Профиль формата : High [email protected]
Параметр CABAC формата : Да
Параметр ReFrames формата : 9 кадров
Идентификатор кодека : V_MPEG4/ISO/AVC
Продолжительность : 24 м.
Битрейт : 3366 Кбит/сек
Ширина : 1280 пикселей
Высота : 720 пикселей
Соотношение сторон : 16:9
Режим частоты кадров : Постоянный
Частота кадров : 23,976 кадра/сек
Цветовое пространство : YUV
Субдискретизация насыщенности : 4:2:0
Битовая глубина : 10 бит
Тип развёртки : Прогрессивная
Бит/(Пиксели*Кадры) : 0.152
Размер потока : 600 Мбайт (91%)
Библиотека кодирования : x264 core 129 r2230 1cffe9f
Настройки программы : cabac=1 / ref=9 / deblock=1:-2:-2 / analyse=0x3:0x133 / me=umh / subme=9 / psy=1 / psy_rd=0.90:0.00 / mixed_ref=1 / me_range=24 / chroma_me=1 / trellis=2 / 8x8dct=1 / cqm=0 / deadzone=21,11 / fast_pskip=1 / chroma_qp_offset=-2 / threads=6 / lookahead_threads=1 / sliced_threads=0 / nr=0 / decimate=0 / interlaced=0 / bluray_compat=0 / constrained_intra=0 / bframes=8 / b_pyramid=2 / b_adapt=2 / b_bias=0 / direct=1 / weightb=1 / open_gop=0 / weightp=2 / keyint=250 / keyint_min=23 / scenecut=40 / intra_refresh=0 / rc=crf / mbtree=0 / crf=15.8 / qcomp=0.70 / qpmin=9 / qpmax=40 / qpstep=4 / ip_ratio=1.40 / pb_ratio=1.30 / aq=1:0.90
Default : Нет
Forced : Нет
Аудио
Идентификатор : 2
Формат : Vorbis
Параметр Floor формата : 1
Идентификатор кодека : A_VORBIS
Продолжительность : 24 м.
Вид битрейта : Переменный
Битрейт : 256 Кбит/сек
Каналы : 2 канала
Частота : 48,0 КГц
Метод сжатия : С потерями
Размер потока : 45,7 Мбайт (7%)
Библиотека кодирования : libVorbis (Schaufenugget) (20101101 (Schaufenugget))
Язык : Japanese
Default : Да
Forced : Нет

Скриншоты



-Автор релиза © Валерка, Оформление от © Alex_38

Создавать темы 14-Апр-2014 19:35

[Профиль]  [ЛС] 
Показать сообщения:    
Ответить на тему

Текущее время: 22-Окт 18:45

Часовой пояс: UTC + 5



Вы не можете начинать темы
Вы не можете отвечать на сообщения
Вы не можете редактировать свои сообщения
Вы не можете удалять свои сообщения
Вы не можете голосовать в опросах
Вы не можете прикреплять файлы к сообщениям
Вы не можете скачивать файлы